<svg xmlns="http://www.w3.org/2000/svg">
<defs>
<font id="Calibri-Light" horiz-adv-x="0" >
  <font-face 
    font-family="Calibri Light"
    font-weight="300"
    font-stretch="normal"
    units-per-em="2048"
    panose-1="2 15 3 2 2 2 4 3 2 4"
    ascent="1536"
    descent="-512"
    x-height="946.002"
    cap-height="1294"
    bbox="-1047 -550 2475 1950"
    underline-thickness="104"
    underline-position="-209"
    unicode-range="U+000D-U+FEFF"
  />
<missing-glyph horiz-adv-x="1038" 
d="M973 1294v-1294h-927v1294h927zM897 70v1154h-778v-1154h778zM760 860c0 -40 -5.99707 -75.667 -17.9971 -107s-28.833 -57.666 -50.5 -78.999s-47.167 -37.833 -76.5 -49.5s-61.333 -17.834 -96 -18.501l-5 -170c0 -5.33301 -3.66699 -9.16602 -11 -11.499
s-18 -3.5 -32 -3.5c-6.66699 0 -12.334 0.333008 -17.001 1s-8.66699 1.66699 -12 3s-5.83301 2.83301 -7.5 4.5s-2.5 3.83398 -2.5 6.50098l-4 200c0 15.333 4.33301 26.5 13 33.5s20 10.5 34 10.5h20c32.667 0 59.834 4.5 81.501 13.5s39.167 21.167 52.5 36.5
s22.833 33.666 28.5 54.999s8.5 44 8.5 68c0 53.333 -14.667 95.333 -44 126s-76.666 46 -141.999 46c-26 0 -49.5 -2.83301 -70.5 -8.5s-39.5 -12 -55.5 -19s-29.333 -13.333 -40 -19s-18.334 -8.5 -23.001 -8.5c-2 0 -4.16699 0.5 -6.5 1.5s-4.33301 3 -6 6s-3 7 -4 12
s-1.5 11.5 -1.5 19.5s0.833008 15.167 2.5 21.5s5.16699 12.166 10.5 17.499c4.66699 4.66699 13.667 10.167 27 16.5s29.166 12.5 47.499 18.5s38.666 11.167 60.999 15.5s44.5 6.5 66.5 6.5c46 0 86 -6.33301 120 -19s62.167 -30 84.5 -52s39.166 -48 50.499 -78
s17 -62 17 -96zM536.003 267c0 -12 -1 -22 -3 -30s-5.33301 -14.5 -10 -19.5s-10.834 -8.5 -18.501 -10.5s-17.167 -3 -28.5 -3c-12 0 -22 1 -30 3s-14.5 5.5 -19.5 10.5s-8.5 11.5 -10.5 19.5s-3 18 -3 30s1 22 3 30s5.5 14.5 10.5 19.5s11.5 8.5 19.5 10.5s18 3 30 3
c11.333 0 20.833 -1 28.5 -3s13.834 -5.5 18.501 -10.5s8 -11.5 10 -19.5s3 -18 3 -30z" />
    <glyph glyph-name="uniFB00" unicode="ff" horiz-adv-x="1175" 
d="M1200 1311c0 -15.333 -1.66797 -26.6699 -5.00098 -34.0029s-8.66602 -11 -15.999 -11c-5.33301 0 -11.833 1.66699 -19.5 5s-17.334 7 -29.001 11s-25 7.66699 -40 11s-31.833 5 -50.5 5c-55.333 0 -94.166 -19.5 -116.499 -58.5s-33.5 -101.167 -33.5 -186.5v-107h222
c4.66699 0 8.83398 -1 12.501 -3s6.83398 -5.16699 9.50098 -9.5s4.66699 -9.66602 6 -15.999s2 -13.833 2 -22.5c0 -16.667 -2.66699 -29.167 -8 -37.5s-12.666 -12.5 -21.999 -12.5h-222v-825c0 -4 -1 -7.66699 -3 -11s-5.16699 -6 -9.5 -8s-10.333 -3.66699 -18 -5
s-17.167 -2 -28.5 -2c-12 0 -21.833 0.666992 -29.5 2s-13.667 3 -18 5s-7.5 4.66699 -9.5 8s-3 7 -3 11v825h-444v-825c0 -4 -1 -7.66699 -3 -11s-5.33301 -6 -10 -8s-10.834 -3.66699 -18.501 -5s-17.167 -2 -28.5 -2s-20.833 0.666992 -28.5 2s-13.834 3 -18.501 5
s-7.83398 4.66699 -9.50098 8s-2.5 7 -2.5 11v825h-136c-9.33301 0 -16.5 4.16699 -21.5 12.5s-7.5 20.833 -7.5 37.5c0 8.66699 0.666992 16.167 2 22.5s3.16602 11.666 5.49902 15.999s5.33301 7.5 9 9.5s7.83398 3 12.501 3h136v96c0 62.667 5.83301 116 17.5 160
s29 79.833 52 107.5s51.5 47.834 85.5 60.501s73 19 117 19c29.333 0 54.666 -2.66699 75.999 -8s38 -10.666 50 -15.999c6 -2.66699 10.833 -5.83398 14.5 -9.50098s6.66699 -8.16699 9 -13.5s4 -11.5 5 -18.5s1.5 -14.833 1.5 -23.5c0 -15.333 -1.5 -26.666 -4.5 -33.999
s-8.16699 -11 -15.5 -11c-5.33301 0 -12 1.66699 -20 5s-17.833 7 -29.5 11s-25 7.66699 -40 11s-31.833 5 -50.5 5c-55.333 0 -94 -19.5 -116 -58.5s-33 -101.167 -33 -186.5v-96h444v107c0 62.667 6 116 18 160s29.5 79.833 52.5 107.5s51.5 47.834 85.5 60.501
s73 19 117 19c28.667 0 53.834 -2.66699 75.501 -8s38.5 -10.666 50.5 -15.999c5.33301 -2.66699 10 -5.83398 14 -9.50098s7.16699 -8.16699 9.5 -13.5s4 -11.5 5 -18.5s1.5 -14.833 1.5 -23.5z" />
    <glyph glyph-name="uniFB01" unicode="fi" horiz-adv-x="1057" 
d="M908 1229c0 -15.333 -1.16699 -28.166 -3.5 -38.499s-6.33301 -18.666 -12 -24.999s-13.5 -10.833 -23.5 -13.5s-22.667 -4 -38 -4s-28 1.33301 -38 4s-18 7.16699 -24 13.5s-10.167 14.666 -12.5 24.999s-3.5 23.166 -3.5 38.499s1.16699 28.166 3.5 38.499
s6.5 18.833 12.5 25.5s14 11.334 24 14.001s22.667 4 38 4s28 -1.33301 38 -4s17.833 -7.33398 23.5 -14.001s9.66699 -15.167 12 -25.5s3.5 -23.166 3.5 -38.499zM890 20c0 -4 -0.999023 -7.66895 -2.99902 -11.002s-5.16699 -6 -9.5 -8s-10.333 -3.66699 -18 -5
s-17.167 -2 -28.5 -2c-12 0 -21.833 0.666992 -29.5 2s-13.667 3 -18 5s-7.5 4.66699 -9.5 8s-3 7 -3 11v825h-444v-825c0 -4 -1 -7.66699 -3 -11s-5.16699 -6 -9.5 -8s-10.333 -3.66699 -18 -5s-17.5 -2 -29.5 -2c-11.333 0 -20.833 0.666992 -28.5 2s-13.834 3 -18.501 5
s-7.83398 4.66699 -9.50098 8s-2.5 7 -2.5 11v825h-136c-9.33301 0 -16.5 4.16699 -21.5 12.5s-7.5 20.833 -7.5 37.5c0 8.66699 0.666992 16.167 2 22.5s3.16602 11.666 5.49902 15.999s5.33301 7.5 9 9.5s7.83398 3 12.501 3h136v107c0 62.667 5.83301 116 17.5 160
s28.834 79.833 51.501 107.5s50.5 47.834 83.5 60.501s70.5 19 112.5 19c14.667 0 29 -0.666992 43 -2s26.833 -3.16602 38.5 -5.49902s21.667 -5 30 -8s14 -6 17 -9s5.5 -6.16699 7.5 -9.5s3.5 -7.16602 4.5 -11.499s1.83301 -9.5 2.5 -15.5s1 -13 1 -21
c0 -14.667 -1.5 -25.667 -4.5 -33s-8.16699 -11 -15.5 -11c-5.33301 0 -11 1.16699 -17 3.5s-13.833 5 -23.5 8s-21.5 5.83301 -35.5 8.5s-31.333 4 -52 4c-52 0 -88.667 -19.5 -110 -58.5s-32 -101.167 -32 -186.5v-107h526c13.333 0 22.833 -3.83301 28.5 -11.5
s8.5 -17.5 8.5 -29.5v-885z" />
    <glyph glyph-name="uniFB02" unicode="fl" horiz-adv-x="1057" 
d="M890 20c0 -4 -1.00684 -7.66992 -3.00684 -11.0029s-5.16699 -6 -9.5 -8s-10.333 -3.66699 -18 -5s-17.167 -2 -28.5 -2c-12 0 -21.833 0.666992 -29.5 2s-13.667 3 -18 5s-7.5 4.66699 -9.5 8s-3 7 -3 11v1256c-1.33301 -1.33301 -3 -2.16602 -5 -2.49902
s-5 -0.5 -9 -0.5c-8 0 -21 2.16699 -39 6.5s-36.5 7.83301 -55.5 10.5s-37 4.66699 -54 6s-33.167 2 -48.5 2c-47.333 0 -86.166 -4.83301 -116.499 -14.5s-54.166 -24.5 -71.499 -44.5s-29.166 -45.5 -35.499 -76.5s-9.5 -67.5 -9.5 -109.5v-107h205
c4.66699 0 8.83398 -1 12.501 -3s6.83398 -5.16699 9.50098 -9.5s4.66699 -9.66602 6 -15.999s2 -13.833 2 -22.5c0 -16.667 -2.66699 -29.167 -8 -37.5s-12.666 -12.5 -21.999 -12.5h-205v-825c0 -4 -1 -7.66699 -3 -11s-5.16699 -6 -9.5 -8s-10.333 -3.66699 -18 -5
s-17.5 -2 -29.5 -2c-11.333 0 -20.833 0.666992 -28.5 2s-13.834 3 -18.501 5s-7.83398 4.66699 -9.50098 8s-2.5 7 -2.5 11v825h-136c-9.33301 0 -16.5 4.16699 -21.5 12.5s-7.5 20.833 -7.5 37.5c0 8.66699 0.666992 16.167 2 22.5s3.16602 11.666 5.49902 15.999
s5.33301 7.5 9 9.5s7.83398 3 12.501 3h136v107c0 62.667 7 116 21 160s35.667 79.833 65 107.5s66.333 47.834 111 60.501s97.667 19 159 19c17.333 0 34.833 -0.666992 52.5 -2s34.834 -3 51.501 -5s31.334 -4.16699 44.001 -6.5s22.667 -4.5 30 -6.5
s13.333 -4.33301 18 -7s8.33398 -6.66699 11.001 -12c0 6.66699 1 12 3 16s5.16699 7.33301 9.5 10s10.333 4.5 18 5.5s17.5 1.5 29.5 1.5c11.333 0 20.833 -0.5 28.5 -1.5s13.667 -2.66699 18 -5s7.5 -5.16602 9.5 -8.49902s3 -7 3 -11v-1348z" />
    <glyph glyph-name="uniFB03" unicode="ffi" horiz-adv-x="1620" 
d="M1472 1229c0 -15.333 -1.16699 -28.166 -3.5 -38.499s-6.5 -18.666 -12.5 -24.999s-14 -10.833 -24 -13.5s-22.667 -4 -38 -4s-28 1.33301 -38 4s-18 7.16699 -24 13.5s-10.167 14.666 -12.5 24.999s-3.5 23.166 -3.5 38.499s1.16699 28.166 3.5 38.499
s6.5 18.833 12.5 25.5s14 11.334 24 14.001s22.667 4 38 4s28 -1.33301 38 -4s18 -7.33398 24 -14.001s10.167 -15.167 12.5 -25.5s3.5 -23.166 3.5 -38.499zM1454 20c0 -4 -0.995117 -7.6709 -2.99512 -11.0039s-5.16699 -6 -9.5 -8s-10.333 -3.66699 -18 -5
s-17.5 -2 -29.5 -2c-11.333 0 -20.833 0.666992 -28.5 2s-13.834 3 -18.501 5s-7.83398 4.66699 -9.50098 8s-2.5 7 -2.5 11v825h-445v-825c0 -4 -1 -7.66699 -3 -11s-5.16699 -6 -9.5 -8s-10.333 -3.66699 -18 -5s-17.167 -2 -28.5 -2c-12 0 -21.833 0.666992 -29.5 2
s-13.667 3 -18 5s-7.5 4.66699 -9.5 8s-3 7 -3 11v825h-444v-825c0 -4 -1 -7.66699 -3 -11s-5.16699 -6 -9.5 -8s-10.5 -3.66699 -18.5 -5s-17.667 -2 -29 -2s-20.833 0.666992 -28.5 2s-13.834 3 -18.501 5s-7.83398 4.66699 -9.50098 8s-2.5 7 -2.5 11v825h-136
c-9.33301 0 -16.5 4.16699 -21.5 12.5s-7.5 20.833 -7.5 37.5c0 8.66699 0.666992 16.167 2 22.5s3.16602 11.666 5.49902 15.999s5.33301 7.5 9 9.5s7.83398 3 12.501 3h136v96c0 62.667 5.83301 116 17.5 160s29 79.833 52 107.5s51.5 47.834 85.5 60.501s73 19 117 19
c29.333 0 54.666 -2.66699 75.999 -8s36.5 -10 45.5 -14s15.333 -7.83301 19 -11.5s6.66699 -8.16699 9 -13.5s4 -11.5 5 -18.5s1.5 -14.833 1.5 -23.5c0 -15.333 -1.5 -26.666 -4.5 -33.999s-8.16699 -11 -15.5 -11c-5.33301 0 -12 1.66699 -20 5s-17.833 7 -29.5 11
s-25 7.66699 -40 11s-31.833 5 -50.5 5c-55.333 0 -94 -19.5 -116 -58.5s-33 -101.167 -33 -186.5v-96h444v107c0 62.667 6 116 18 160s29.167 79.833 51.5 107.5s50 47.834 83 60.501s70.5 19 112.5 19c14.667 0 29.167 -0.666992 43.5 -2s27.166 -3.16602 38.499 -5.49902
s21.166 -5 29.499 -8s14 -6 17 -9s5.5 -6.16699 7.5 -9.5s3.66699 -7.16602 5 -11.499s2.33301 -9.5 3 -15.5s1 -13 1 -21c0 -14.667 -1.5 -25.667 -4.5 -33s-8.16699 -11 -15.5 -11c-5.33301 0 -11.166 1.16699 -17.499 3.5s-14.166 5 -23.499 8s-21 5.83301 -35 8.5
s-31.333 4 -52 4c-52 0 -88.833 -19.5 -110.5 -58.5s-32.5 -101.167 -32.5 -186.5v-107h526c13.333 0 23 -3.83301 29 -11.5s9 -17.5 9 -29.5v-885z" />
    <glyph glyph-name="uniFB04" unicode="ffl" horiz-adv-x="1620" 
d="M1454 20c0 -4 -0.998047 -7.67188 -2.99805 -11.0049s-5.16699 -6 -9.5 -8s-10.333 -3.66699 -18 -5s-17.5 -2 -29.5 -2c-11.333 0 -20.833 0.666992 -28.5 2s-13.834 3 -18.501 5s-7.83398 4.66699 -9.50098 8s-2.5 7 -2.5 11v1256c-2 -1.33301 -4 -2.16602 -6 -2.49902
s-5 -0.5 -9 -0.5c-8 0 -21 2.16699 -39 6.5s-36.5 7.83301 -55.5 10.5s-37 4.66699 -54 6s-32.833 2 -47.5 2c-47.333 0 -86.166 -4.83301 -116.499 -14.5s-54.166 -24.5 -71.499 -44.5s-29.333 -45.5 -36 -76.5s-10 -67.5 -10 -109.5v-107h206c4.66699 0 8.66699 -1 12 -3
s6.33301 -5.16699 9 -9.5s4.66699 -9.66602 6 -15.999s2 -13.833 2 -22.5c0 -16.667 -2.66699 -29.167 -8 -37.5s-12.333 -12.5 -21 -12.5h-206v-825c0 -4 -1 -7.66699 -3 -11s-5.16699 -6 -9.5 -8s-10.333 -3.66699 -18 -5s-17.167 -2 -28.5 -2
c-12 0 -21.833 0.666992 -29.5 2s-13.667 3 -18 5s-7.5 4.66699 -9.5 8s-3 7 -3 11v825h-444v-825c0 -4 -1 -7.66699 -3 -11s-5.16699 -6 -9.5 -8s-10.5 -3.66699 -18.5 -5s-17.667 -2 -29 -2s-20.833 0.666992 -28.5 2s-13.834 3 -18.501 5s-7.83398 4.66699 -9.50098 8
s-2.5 7 -2.5 11v825h-136c-9.33301 0 -16.5 4.16699 -21.5 12.5s-7.5 20.833 -7.5 37.5c0 8.66699 0.666992 16.167 2 22.5s3.16602 11.666 5.49902 15.999s5.33301 7.5 9 9.5s7.83398 3 12.501 3h136v96c0 62.667 5.83301 116 17.5 160s29 79.833 52 107.5
s51.5 47.834 85.5 60.501s73 19 117 19c29.333 0 54.666 -2.66699 75.999 -8s36.5 -10 45.5 -14s15.333 -7.83301 19 -11.5s6.66699 -8.16699 9 -13.5s4 -11.5 5 -18.5s1.5 -14.833 1.5 -23.5c0 -15.333 -1.5 -26.666 -4.5 -33.999s-8.16699 -11 -15.5 -11
c-5.33301 0 -12 1.66699 -20 5s-17.833 7 -29.5 11s-25 7.66699 -40 11s-31.833 5 -50.5 5c-55.333 0 -94 -19.5 -116 -58.5s-33 -101.167 -33 -186.5v-96h444v107c0 62.667 7.16699 116 21.5 160s36 79.833 65 107.5s65.833 47.834 110.5 60.501s97.667 19 159 19
c17.333 0 34.833 -0.666992 52.5 -2s34.834 -3 51.501 -5s31.5 -4.16699 44.5 -6.5s23.167 -4.5 30.5 -6.5s13.166 -4.33301 17.499 -7s8.16602 -6.66699 11.499 -12c0 6.66699 0.833008 12 2.5 16s4.83398 7.33301 9.50098 10s10.834 4.5 18.501 5.5s17.167 1.5 28.5 1.5
c12 0 21.833 -0.5 29.5 -1.5s13.667 -2.66699 18 -5s7.5 -5.16602 9.5 -8.49902s3 -7 3 -11v-1348z" />
    <glyph glyph-name="f_b.liga" unicode="fb" horiz-adv-x="1668" 
d="M1561 484c0 -77.333 -8.34082 -146.836 -25.0078 -208.503s-41.334 -114.167 -74.001 -157.5s-73.167 -76.666 -121.5 -99.999s-103.833 -35 -166.5 -35c-28 0 -53.833 2.83301 -77.5 8.5s-47 14.834 -70 27.501s-46.167 28.667 -69.5 48s-48.666 42.666 -75.999 69.999
v-117c0 -4.66699 -1.16699 -8.66699 -3.5 -12s-5.66602 -6 -9.99902 -8s-10 -3.5 -17 -4.5s-15.5 -1.5 -25.5 -1.5s-18.5 0.5 -25.5 1.5s-12.667 2.5 -17 4.5s-7.33301 4.66699 -9 8s-2.5 7.33301 -2.5 12v1256c-2.66699 -1.33301 -5.16699 -2.16602 -7.5 -2.49902
s-5.16602 -0.5 -8.49902 -0.5c-6.66699 0 -19.667 2.16699 -39 6.5s-37.666 7.83301 -54.999 10.5s-34.666 4.66699 -51.999 6s-33.666 2 -48.999 2c-47.333 0 -86.166 -4.83301 -116.499 -14.5s-54.166 -24.5 -71.499 -44.5s-29.166 -45.5 -35.499 -76.5
s-9.5 -67.5 -9.5 -109.5v-107h205c4.66699 0 8.83398 -1 12.501 -3s6.83398 -5.16699 9.50098 -9.5s4.66699 -9.66602 6 -15.999s2 -13.833 2 -22.5c0 -16.667 -2.66699 -29.167 -8 -37.5s-12.666 -12.5 -21.999 -12.5h-205v-825c0 -4 -1 -7.66699 -3 -11
s-5.33301 -6 -10 -8s-10.834 -3.66699 -18.501 -5s-17.167 -2 -28.5 -2s-20.833 0.666992 -28.5 2s-13.834 3 -18.501 5s-7.83398 4.66699 -9.50098 8s-2.5 7 -2.5 11v825h-136c-9.33301 0 -16.5 4.16699 -21.5 12.5s-7.5 20.833 -7.5 37.5
c0 8.66699 0.666992 16.167 2 22.5s3.16602 11.666 5.49902 15.999s5.33301 7.5 9 9.5s7.83398 3 12.501 3h136v107c0 62.667 7 116 21 160s35.667 79.833 65 107.5s66.333 47.834 111 60.501s97.667 19 159 19c17.333 0 34.833 -0.666992 52.5 -2s34.5 -3 50.5 -5
s30.667 -4.16699 44 -6.5s23.666 -4.5 30.999 -6.5s13.333 -4.33301 18 -7s8.33398 -6.66699 11.001 -12c0 6.66699 1 12 3 16s5.16699 7.33301 9.5 10s10.333 4.5 18 5.5s17.5 1.5 29.5 1.5c11.333 0 20.833 -0.5 28.5 -1.5s13.667 -2.66699 18 -5
s7.5 -5.16602 9.5 -8.49902s3 -7 3 -11v-565c29.333 30 57 55.167 83 75.5s51.333 36.666 76 48.999s49.167 21.166 73.5 26.499s49.5 8 75.5 8c65.333 0 121 -12.667 167 -38s83.5 -59.666 112.5 -102.999s50.167 -94 63.5 -152s20 -119.667 20 -185zM1436.99 464.997
c0 50.667 -4.00195 99.666 -12.002 146.999s-21.667 89.333 -41 126s-45 66.167 -77 88.5s-72 33.5 -120 33.5c-24 0 -47.333 -3.33301 -70 -10s-46 -17.667 -70 -33s-48.833 -35.166 -74.5 -59.499s-53.167 -54.5 -82.5 -90.5v-394
c50 -60.667 98.167 -107.167 144.5 -139.5s94.5 -48.5 144.5 -48.5c46.667 0 86.334 11.167 119.001 33.5s59.334 51.5 80.001 87.5s35.667 76.667 45 122s14 91 14 137z" />
    <glyph glyph-name="f_f_b.liga" unicode="ffb" horiz-adv-x="2232" 
d="M2000 465c0 50.667 -4 99.666 -12 146.999s-21.667 89.333 -41 126s-45 66.167 -77 88.5s-72 33.5 -120 33.5c-23.333 0 -46.5 -3.33301 -69.5 -10s-46.5 -17.667 -70.5 -33s-48.833 -35.166 -74.5 -59.499s-52.834 -54.5 -81.501 -90.5v-394
c50 -60.667 98.167 -107.167 144.5 -139.5s94.5 -48.5 144.5 -48.5c46 0 85.333 11.167 118 33.5s59.334 51.5 80.001 87.5s35.667 76.667 45 122s14 91 14 137zM771 945.999l0.00195312 106.995c0 62.667 7.16699 116 21.5 160s36 79.833 65 107.5
s65.833 47.834 110.5 60.501s97.667 19 159 19c18 0 35.833 -0.666992 53.5 -2s34.5 -3 50.5 -5s30.667 -4.16699 44 -6.5s23.666 -4.5 30.999 -6.5s13.166 -4.33301 17.499 -7s8.16602 -6.66699 11.499 -12c0 6.66699 0.833008 12 2.5 16s4.83398 7.33301 9.50098 10
s10.834 4.5 18.501 5.5s17.167 1.5 28.5 1.5c12 0 21.833 -0.5 29.5 -1.5s13.667 -2.66699 18 -5s7.5 -5.16602 9.5 -8.49902s3 -7 3 -11v-565c28.667 30 56 55.167 82 75.5s51.333 36.666 76 48.999s49.167 21.166 73.5 26.499s49.5 8 75.5 8
c65.333 0 121.166 -12.667 167.499 -38s84 -59.666 113 -102.999s50.167 -94 63.5 -152s20 -119.667 20 -185c0 -77.333 -8.33301 -146.833 -25 -208.5s-41.5 -114.167 -74.5 -157.5s-73.667 -76.666 -122 -99.999s-103.833 -35 -166.5 -35c-28 0 -53.833 2.83301 -77.5 8.5
s-46.834 14.834 -69.501 27.501s-45.834 28.667 -69.501 48s-49.167 42.666 -76.5 69.999v-117c0 -4.66699 -1 -8.66699 -3 -12s-5.33301 -6 -10 -8s-10.334 -3.5 -17.001 -4.5s-15 -1.5 -25 -1.5s-18.5 0.5 -25.5 1.5s-12.667 2.5 -17 4.5s-7.33301 4.66699 -9 8
s-2.5 7.33301 -2.5 12v1256c-2.66699 -1.33301 -5.16699 -2.16602 -7.5 -2.49902s-5.16602 -0.5 -8.49902 -0.5c-6.66699 0 -19.667 2.16699 -39 6.5s-37.666 7.83301 -54.999 10.5s-34.666 4.66699 -51.999 6s-33.666 2 -48.999 2
c-47.333 0 -86.166 -4.83301 -116.499 -14.5s-54.166 -24.5 -71.499 -44.5s-29.333 -45.5 -36 -76.5s-10 -67.5 -10 -109.5v-107h206c4.66699 0 8.66699 -1 12 -3s6.33301 -5.16699 9 -9.5s4.66699 -9.66602 6 -15.999s2 -13.833 2 -22.5
c0 -16.667 -2.66699 -29.167 -8 -37.5s-12.333 -12.5 -21 -12.5h-206v-825c0 -4 -1 -7.66699 -3 -11s-5.16699 -6 -9.5 -8s-10.333 -3.66699 -18 -5s-17.167 -2 -28.5 -2c-12 0 -21.833 0.666992 -29.5 2s-13.667 3 -18 5s-7.5 4.66699 -9.5 8s-3 7 -3 11v825h-444v-825
c0 -4 -1 -7.66699 -3 -11s-5.16699 -6 -9.5 -8s-10.333 -3.66699 -18 -5s-17.5 -2 -29.5 -2c-11.333 0 -20.833 0.666992 -28.5 2s-13.834 3 -18.501 5s-7.83398 4.66699 -9.50098 8s-2.5 7 -2.5 11v825h-136c-9.33301 0 -16.5 4.16699 -21.5 12.5s-7.5 20.833 -7.5 37.5
c0 8.66699 0.666992 16.167 2 22.5s3.16602 11.666 5.49902 15.999s5.33301 7.5 9 9.5s7.83398 3 12.501 3h136v96c0 62.667 5.83301 116 17.5 160s29 79.833 52 107.5s51.5 47.834 85.5 60.501s73 19 117 19c29.333 0 54.666 -2.66699 75.999 -8s38 -10.666 50 -15.999
c6 -2.66699 10.833 -5.83398 14.5 -9.50098s6.66699 -8.16699 9 -13.5s4 -11.5 5 -18.5s1.5 -14.833 1.5 -23.5c0 -15.333 -1.5 -26.666 -4.5 -33.999s-8.16699 -11 -15.5 -11c-5.33301 0 -12 1.66699 -20 5s-17.833 7 -29.5 11s-25 7.66699 -40 11s-31.833 5 -50.5 5
c-55.333 0 -94 -19.5 -116 -58.5s-33 -101.167 -33 -186.5v-96h444z" />
    <glyph glyph-name="f_h.liga" unicode="fh" horiz-adv-x="1669" 
d="M1505 20c0 -4 -1.00488 -7.6709 -3.00488 -11.0039s-5.16699 -6 -9.5 -8s-10.333 -3.66699 -18 -5s-17.167 -2 -28.5 -2s-20.833 0.666992 -28.5 2s-14 3 -19 5s-8.33301 4.66699 -10 8s-2.5 7 -2.5 11v537c0 56 -4.16699 101.5 -12.5 136.5s-21.333 65 -39 90
s-39.834 44.333 -66.501 58s-58 20.5 -94 20.5c-46 0 -92 -16.333 -138 -49s-94.667 -80.667 -146 -144v-649c0 -4 -1 -7.66699 -3 -11s-5.16699 -6 -9.5 -8s-10.333 -3.66699 -18 -5s-17.167 -2 -28.5 -2c-12 0 -21.833 0.666992 -29.5 2s-13.667 3 -18 5
s-7.5 4.66699 -9.5 8s-3 7 -3 11v1256c-2.66699 -1.33301 -5.16699 -2.16602 -7.5 -2.49902s-5.16602 -0.5 -8.49902 -0.5c-6.66699 0 -19.667 2.16699 -39 6.5s-37.666 7.83301 -54.999 10.5s-34.666 4.66699 -51.999 6s-33.666 2 -48.999 2
c-47.333 0 -86.166 -4.83301 -116.499 -14.5s-54.166 -24.5 -71.499 -44.5s-29.166 -45.5 -35.499 -76.5s-9.5 -67.5 -9.5 -109.5v-107h205c4.66699 0 8.83398 -1 12.501 -3s6.83398 -5.16699 9.50098 -9.5s4.66699 -9.66602 6 -15.999s2 -13.833 2 -22.5
c0 -16.667 -2.66699 -29.167 -8 -37.5s-12.666 -12.5 -21.999 -12.5h-205v-825c0 -4 -1 -7.66699 -3 -11s-5.16699 -6 -9.5 -8s-10.333 -3.66699 -18 -5s-17.5 -2 -29.5 -2c-11.333 0 -20.833 0.666992 -28.5 2s-13.834 3 -18.501 5s-7.83398 4.66699 -9.50098 8
s-2.5 7 -2.5 11v825h-136c-9.33301 0 -16.5 4.16699 -21.5 12.5s-7.5 20.833 -7.5 37.5c0 8.66699 0.666992 16.167 2 22.5s3.16602 11.666 5.49902 15.999s5.33301 7.5 9 9.5s7.83398 3 12.501 3h136v107c0 62.667 7 116 21 160s35.667 79.833 65 107.5
s66.333 47.834 111 60.501s97.667 19 159 19c17.333 0 34.833 -0.666992 52.5 -2s34.5 -3 50.5 -5s30.667 -4.16699 44 -6.5s23.666 -4.5 30.999 -6.5s13.333 -4.33301 18 -7s8.33398 -6.66699 11.001 -12c0 6.66699 1 12 3 16s5.16699 7.33301 9.5 10s10.333 4.5 18 5.5
s17.5 1.5 29.5 1.5c11.333 0 20.833 -0.5 28.5 -1.5s13.667 -2.66699 18 -5s7.5 -5.16602 9.5 -8.49902s3 -7 3 -11v-565c49.333 54.667 98.666 94.834 147.999 120.501s99 38.5 149 38.5c59.333 0 109.166 -10 149.499 -30s73 -47 98 -81s43 -73.667 54 -119
s16.5 -100 16.5 -164v-548z" />
    <glyph glyph-name="f_f_h.liga" unicode="ffh" horiz-adv-x="2232" 
d="M771 1053c0 62.667 7.1709 115.994 21.5039 159.994s36 79.833 65 107.5s65.833 47.834 110.5 60.501s97.667 19 159 19c18 0 35.833 -0.666992 53.5 -2s34.5 -3 50.5 -5s30.667 -4.16699 44 -6.5s23.666 -4.5 30.999 -6.5s13.166 -4.33301 17.499 -7
s8.16602 -6.66699 11.499 -12c0 6.66699 0.833008 12 2.5 16s4.83398 7.33301 9.50098 10s10.834 4.5 18.501 5.5s17.167 1.5 28.5 1.5c12 0 21.833 -0.5 29.5 -1.5s13.667 -2.66699 18 -5s7.5 -5.16602 9.5 -8.49902s3 -7 3 -11v-565
c49.333 54.667 98.666 94.834 147.999 120.501s98.666 38.5 147.999 38.5c59.333 0 109.333 -10 150 -30s73.5 -47 98.5 -81s43 -73.667 54 -119s16.5 -100 16.5 -164v-548c0 -4 -1 -7.66699 -3 -11s-5.16699 -6 -9.5 -8s-10.333 -3.66699 -18 -5s-17.167 -2 -28.5 -2
c-12 0 -21.833 0.666992 -29.5 2s-13.667 3 -18 5s-7.5 4.66699 -9.5 8s-3 7 -3 11v537c0 56 -4.33301 101.5 -13 136.5s-21.667 65 -39 90s-39.5 44.333 -66.5 58s-58.5 20.5 -94.5 20.5c-46 0 -91.833 -16.333 -137.5 -49s-94.167 -80.667 -145.5 -144v-649
c0 -4 -1 -7.66699 -3 -11s-5.16699 -6 -9.5 -8s-10.333 -3.66699 -18 -5s-17.5 -2 -29.5 -2c-11.333 0 -20.833 0.666992 -28.5 2s-13.834 3 -18.501 5s-7.83398 4.66699 -9.50098 8s-2.5 7 -2.5 11v1256c-2.66699 -1.33301 -5.16699 -2.16602 -7.5 -2.49902
s-5.16602 -0.5 -8.49902 -0.5c-6 0 -17.5 2 -34.5 6s-35.5 7.5 -55.5 10.5s-38.667 5.16699 -56 6.5s-33.666 2 -48.999 2c-47.333 0 -86.166 -4.83301 -116.499 -14.5s-54.166 -24.5 -71.499 -44.5s-29.333 -45.5 -36 -76.5s-10 -67.5 -10 -109.5v-107h206
c4.66699 0 8.66699 -1 12 -3s6.33301 -5.16699 9 -9.5s4.66699 -9.66602 6 -15.999s2 -13.833 2 -22.5c0 -16.667 -2.66699 -29.167 -8 -37.5s-12.333 -12.5 -21 -12.5h-206v-825c0 -4 -1 -7.66699 -3 -11s-5.16699 -6 -9.5 -8s-10.333 -3.66699 -18 -5s-17.167 -2 -28.5 -2
c-12 0 -21.833 0.666992 -29.5 2s-13.667 3 -18 5s-7.5 4.66699 -9.5 8s-3 7 -3 11v825h-444v-825c0 -4 -1 -7.66699 -3 -11s-5.16699 -6 -9.5 -8s-10.5 -3.66699 -18.5 -5s-17.667 -2 -29 -2s-20.833 0.666992 -28.5 2s-13.834 3 -18.501 5s-7.83398 4.66699 -9.50098 8
s-2.5 7 -2.5 11v825h-136c-9.33301 0 -16.5 4.16699 -21.5 12.5s-7.5 20.833 -7.5 37.5c0 8.66699 0.666992 16.167 2 22.5s3.16602 11.666 5.49902 15.999s5.33301 7.5 9 9.5s7.83398 3 12.501 3h136v96c0 62.667 5.83301 116 17.5 160s29 79.833 52 107.5
s51.5 47.834 85.5 60.501s73 19 117 19c29.333 0 54.666 -2.66699 75.999 -8s38 -10.666 50 -15.999c6 -2.66699 10.833 -5.83398 14.5 -9.50098s6.66699 -8.16699 9 -13.5s4 -11.5 5 -18.5s1.5 -14.833 1.5 -23.5c0 -15.333 -1.5 -26.666 -4.5 -33.999
s-8.16699 -11 -15.5 -11c-5.33301 0 -12 1.66699 -20 5s-17.833 7 -29.5 11s-25 7.66699 -40 11s-31.833 5 -50.5 5c-55.333 0 -94 -19.5 -116 -58.5s-33 -101.167 -33 -186.5v-96h444v107z" />
    <glyph glyph-name="f_igrave.liga" unicode="f&#xec;" horiz-adv-x="1057" 
d="M890 20c0 -4 -0.993164 -7.66504 -2.99316 -10.998s-5.16699 -6 -9.5 -8s-10.333 -3.66699 -18 -5s-17.167 -2 -28.5 -2c-12 0 -21.833 0.666992 -29.5 2s-13.667 3 -18 5s-7.5 4.66699 -9.5 8s-3 7 -3 11v825h-444v-825c0 -4 -1 -7.66699 -3 -11s-5.16699 -6 -9.5 -8
s-10.5 -3.66699 -18.5 -5s-17.667 -2 -29 -2s-20.833 0.666992 -28.5 2s-13.834 3 -18.501 5s-7.83398 4.66699 -9.50098 8s-2.5 7 -2.5 11v825h-136c-9.33301 0 -16.5 4.16699 -21.5 12.5s-7.5 20.833 -7.5 37.5c0 8.66699 0.666992 16.167 2 22.5
s3.16602 11.666 5.49902 15.999s5.33301 7.5 9 9.5s7.83398 3 12.501 3h136v126c0 58 5.83301 107.667 17.5 149s28.5 75.166 50.5 101.499s48.667 45.833 80 58.5s66.666 19 105.999 19c19.333 0 37.666 -1.33301 54.999 -4s31.666 -6 42.999 -10s19 -8 23 -12
s7.16699 -8.66699 9.5 -14s4 -11.5 5 -18.5s1.5 -14.833 1.5 -23.5c0 -14.667 -1.66699 -25.667 -5 -33s-8.66602 -11 -15.999 -11c-5.33301 0 -11.333 1.16699 -18 3.5s-14.834 5 -24.501 8s-20.834 5.83301 -33.501 8.5s-27.334 4 -44.001 4
c-46.667 0 -80.167 -18.5 -100.5 -55.5s-30.5 -93.833 -30.5 -170.5v-126h526c13.333 0 22.833 -3.83301 28.5 -11.5s8.5 -17.5 8.5 -29.5v-885zM883.007 1133c2 -6 3.16602 -11.333 3.49902 -16s-0.833984 -8.5 -3.50098 -11.5s-7.16699 -5.33301 -13.5 -7
s-14.5 -2.5 -24.5 -2.5s-18.167 0.333008 -24.5 1s-11.666 2 -15.999 4s-8 4.83301 -11 8.5s-6.16699 8.83398 -9.5 15.501l-124 234c-3.33301 6 -4.66602 11.5 -3.99902 16.5s3.16699 9.33301 7.5 13s10.666 6.5 18.999 8.5s18.833 3 31.5 3s23 -0.5 31 -1.5
s14.5 -2.66699 19.5 -5s8.83301 -5.83301 11.5 -10.5s5.33398 -10.334 8.00098 -17.001z" />
    <glyph glyph-name="f_iacute.liga" unicode="f&#xed;" horiz-adv-x="1057" 
d="M890 20c0 -4 -0.99707 -7.66797 -2.99707 -11.001s-5.16699 -6 -9.5 -8s-10.333 -3.66699 -18 -5s-17.167 -2 -28.5 -2c-12 0 -21.833 0.666992 -29.5 2s-13.667 3 -18 5s-7.5 4.66699 -9.5 8s-3 7 -3 11v825h-444v-825c0 -4 -1 -7.66699 -3 -11s-5.16699 -6 -9.5 -8
s-10.333 -3.66699 -18 -5s-17.5 -2 -29.5 -2c-11.333 0 -20.833 0.666992 -28.5 2s-13.834 3 -18.501 5s-7.83398 4.66699 -9.50098 8s-2.5 7 -2.5 11v825h-136c-9.33301 0 -16.5 4.16699 -21.5 12.5s-7.5 20.833 -7.5 37.5c0 8.66699 0.666992 16.167 2 22.5
s3.16602 11.666 5.49902 15.999s5.33301 7.5 9 9.5s7.83398 3 12.501 3h136v107c0 62.667 5.83301 116 17.5 160s29 79.833 52 107.5s51.5 47.834 85.5 60.501s73 19 117 19c25.333 0 48.666 -2.16699 69.999 -6.5s37.5 -9 48.5 -14s18.333 -9.33301 22 -13
s6.66699 -8.16699 9 -13.5s4 -11.5 5 -18.5s1.5 -14.833 1.5 -23.5c0 -15.333 -1.5 -26.666 -4.5 -33.999s-8.16699 -11 -15.5 -11c-5.33301 0 -12 1.66699 -20 5s-17.833 7 -29.5 11s-25 7.66699 -40 11s-31.833 5 -50.5 5c-55.333 0 -94 -19.5 -116 -58.5
s-33 -101.167 -33 -186.5v-107h526c13.333 0 22.833 -3.83301 28.5 -11.5s8.5 -17.5 8.5 -29.5v-885zM931.003 1366c4 6.66699 8.33398 12.334 13.001 17.001s10.167 8.16699 16.5 10.5s14 4 23 5s19.833 1.5 32.5 1.5s23 -1 31 -3s13.667 -4.83301 17 -8.5s4.5 -8 3.5 -13
s-3.83301 -10.5 -8.5 -16.5l-174 -234c-4.66699 -6.66699 -8.83398 -11.834 -12.501 -15.501s-7.83398 -6.5 -12.501 -8.5s-10.334 -3.33301 -17.001 -4s-15 -1 -25 -1s-18.167 0.833008 -24.5 2.5s-10.666 4 -12.999 7s-3.16602 6.83301 -2.49902 11.5s3 10 7 16z" />
    <glyph glyph-name="f_icircumflex.liga" unicode="f&#xee;" horiz-adv-x="1057" 
d="M890 20c0 -4 -0.998047 -7.66504 -2.99805 -10.998s-5.16699 -6 -9.5 -8s-10.333 -3.66699 -18 -5s-17.167 -2 -28.5 -2c-12 0 -21.833 0.666992 -29.5 2s-13.667 3 -18 5s-7.5 4.66699 -9.5 8s-3 7 -3 11v825h-444v-825c0 -4 -1 -7.66699 -3 -11s-5.16699 -6 -9.5 -8
s-10.333 -3.66699 -18 -5s-17.5 -2 -29.5 -2c-11.333 0 -20.833 0.666992 -28.5 2s-13.834 3 -18.501 5s-7.83398 4.66699 -9.50098 8s-2.5 7 -2.5 11v825h-136c-9.33301 0 -16.5 4.16699 -21.5 12.5s-7.5 20.833 -7.5 37.5c0 8.66699 0.666992 16.167 2 22.5
s3.16602 11.666 5.49902 15.999s5.33301 7.5 9 9.5s7.83398 3 12.501 3h136v126c0 58 5.83301 107.667 17.5 149s28.5 75.166 50.5 101.499s48.667 45.833 80 58.5s66.666 19 105.999 19c19.333 0 38 -1.33301 56 -4s32.333 -6 43 -10s18 -8 22 -12
s7.16699 -8.66699 9.5 -14s4 -11.5 5 -18.5s1.5 -14.833 1.5 -23.5c0 -14.667 -1.66699 -25.667 -5 -33s-8.66602 -11 -15.999 -11c-5.33301 0 -11.333 1.16699 -18 3.5l-23.5 8c-9 3 -20.167 5.83301 -33.5 8.5s-28.333 4 -45 4c-46.667 0 -80.167 -18.5 -100.5 -55.5
s-30.5 -93.833 -30.5 -170.5v-126h526c13.333 0 22.833 -3.83301 28.5 -11.5s8.5 -17.5 8.5 -29.5v-885zM706.002 1122c-3.33301 -5.33301 -6.83398 -9.66895 -10.501 -13.002s-7.66699 -6 -12 -8s-9.66602 -3.33301 -15.999 -4s-13.833 -1 -22.5 -1
c-13.333 0 -23.5 1 -30.5 3s-11.5 5 -13.5 9s-1.66699 9.16699 1 15.5s7.33398 13.833 14.001 22.5l165 232c3.33301 4.66699 6.66602 8.33398 9.99902 11.001s7.5 4.83398 12.5 6.50098s11.333 2.83398 19 3.50098s17.167 1 28.5 1c10 0 18.333 -0.333008 25 -1
s12.5 -2 17.5 -4s9.16699 -4.33301 12.5 -7s6.66602 -6 9.99902 -10l165 -232c6 -8.66699 10.167 -16.167 12.5 -22.5s2.33301 -11.5 0 -15.5s-7.16602 -7 -14.499 -9s-17.333 -3 -30 -3c-10 0 -18 0.333008 -24 1s-11.167 2 -15.5 4s-8 4.66699 -11 8
s-6.5 7.66602 -10.5 12.999l-141 198z" />
    <glyph glyph-name="f_itilde.liga" unicode="f&#x129;" horiz-adv-x="1075" 
d="M909 20c0 -4 -0.994141 -7.66406 -2.99414 -10.9971s-5.16699 -6 -9.5 -8s-10.333 -3.66699 -18 -5s-17.5 -2 -29.5 -2c-11.333 0 -20.833 0.666992 -28.5 2s-13.834 3 -18.501 5s-7.83398 4.66699 -9.50098 8s-2.5 7 -2.5 11v825h-463v-825c0 -4 -1 -7.66699 -3 -11
s-5.16699 -6 -9.5 -8s-10.5 -3.66699 -18.5 -5s-17.667 -2 -29 -2s-20.833 0.666992 -28.5 2s-13.834 3 -18.501 5s-7.83398 4.66699 -9.50098 8s-2.5 7 -2.5 11v825h-136c-9.33301 0 -16.5 4.16699 -21.5 12.5s-7.5 20.833 -7.5 37.5c0 8.66699 0.666992 16.167 2 22.5
s3.16602 11.666 5.49902 15.999s5.33301 7.5 9 9.5s7.83398 3 12.501 3h136v126c0 58 5.83301 107.667 17.5 149s28.5 75.166 50.5 101.499s48.667 45.833 80 58.5s66.666 19 105.999 19c10 0 19.833 -0.333008 29.5 -1s18.834 -1.66699 27.501 -3s16.834 -3 24.501 -5
s14.167 -4 19.5 -6s9.66602 -4.5 12.999 -7.5s6 -6.83301 8 -11.5s3.5 -10.334 4.5 -17.001s1.5 -14.334 1.5 -23.001c0 -15.333 -1.66699 -26.666 -5 -33.999s-8.66602 -11 -15.999 -11c-5.33301 0 -10.833 0.833008 -16.5 2.5s-12.834 3.66699 -21.501 6
s-18.834 4.33301 -30.501 6s-25.834 2.5 -42.501 2.5c-46.667 0 -80.167 -18.5 -100.5 -55.5s-30.5 -93.833 -30.5 -170.5v-126h545c13.333 0 22.833 -3.83301 28.5 -11.5s8.5 -17.5 8.5 -29.5v-885zM1129.01 1283c0 -32.667 -4 -61.332 -12 -85.999s-19 -45.5 -33 -62.5
s-30.667 -29.833 -50 -38.5s-40.333 -13 -63 -13c-32 0 -59.5 7.33301 -82.5 22s-43.5 31 -61.5 49l-49.5 49c-15 14.667 -30.833 22 -47.5 22c-22 0 -38 -10.833 -48 -32.5s-15 -49.5 -15 -83.5c0 -9.33301 -3.16699 -16 -9.5 -20s-19.166 -6 -38.499 -6
c-15.333 0 -26.833 2.66699 -34.5 8s-11.5 16.666 -11.5 33.999c0 60.667 14.167 109.334 42.5 146.001s67.166 55 116.499 55c21.333 0 40.5 -3.5 57.5 -10.5s32.667 -15.833 47 -26.5s27.5 -22.167 39.5 -34.5l34 -34.5c10.667 -10.667 21 -19.5 31 -26.5
s20.667 -10.5 32 -10.5c19.333 0 34.5 9.66699 45.5 29s16.5 48.666 16.5 87.999c0 9.33301 3.5 16 10.5 20s18.167 6 33.5 6c18.667 0 31.667 -2.83301 39 -8.5s11 -17.167 11 -34.5z" />
    <glyph glyph-name="f_idieresis.liga" unicode="f&#xef;" horiz-adv-x="1075" 
d="M909 20c0 -4 -0.994141 -7.66406 -2.99414 -10.9971s-5.16699 -6 -9.5 -8s-10.333 -3.66699 -18 -5s-17.167 -2 -28.5 -2c-12 0 -21.833 0.666992 -29.5 2s-13.834 3 -18.501 5s-7.83398 4.66699 -9.50098 8s-2.5 7 -2.5 11v825h-463v-825c0 -4 -1 -7.66699 -3 -11
s-5.16699 -6 -9.5 -8s-10.5 -3.66699 -18.5 -5s-17.667 -2 -29 -2s-20.833 0.666992 -28.5 2s-13.834 3 -18.501 5s-7.83398 4.66699 -9.50098 8s-2.5 7 -2.5 11v825h-136c-9.33301 0 -16.5 4.16699 -21.5 12.5s-7.5 20.833 -7.5 37.5c0 8.66699 0.666992 16.167 2 22.5
s3.16602 11.666 5.49902 15.999s5.33301 7.5 9 9.5s7.83398 3 12.501 3h136v126c0 58 5.83301 107.667 17.5 149s28.5 75.166 50.5 101.499s48.667 45.833 80 58.5s66.666 19 105.999 19c10 0 19.833 -0.333008 29.5 -1s18.834 -1.66699 27.501 -3s16.834 -3 24.501 -5
s14.167 -4 19.5 -6s9.66602 -4.5 12.999 -7.5s6 -6.83301 8 -11.5s3.5 -10.334 4.5 -17.001s1.5 -14.334 1.5 -23.001c0 -15.333 -1.66699 -26.666 -5 -33.999s-8.66602 -11 -15.999 -11c-5.33301 0 -10.833 0.833008 -16.5 2.5s-12.834 3.66699 -21.501 6
s-18.834 4.33301 -30.501 6s-25.834 2.5 -42.501 2.5c-46.667 0 -80.167 -18.5 -100.5 -55.5s-30.5 -93.833 -30.5 -170.5v-126h545c13.333 0 22.833 -3.83301 28.5 -11.5s8.5 -17.5 8.5 -29.5v-885zM649.006 1229c0 14.667 1.16699 27 3.5 37s6.33301 18 12 24
s13.334 10.333 23.001 13s21.5 4 35.5 4c14.667 0 26.667 -1.33301 36 -4s16.833 -7 22.5 -13s9.66699 -14 12 -24s3.5 -22.333 3.5 -37c0 -14 -1.16699 -26 -3.5 -36s-6.33301 -18.167 -12 -24.5s-13.167 -10.833 -22.5 -13.5s-21.333 -4 -36 -4
c-14 0 -25.833 1.33301 -35.5 4s-17.334 7.16699 -23.001 13.5s-9.66699 14.5 -12 24.5s-3.5 22 -3.5 36zM927.006 1229c0 14.667 1.16699 27 3.5 37s6.33301 18 12 24s13.334 10.333 23.001 13s21.5 4 35.5 4c14.667 0 26.667 -1.33301 36 -4s16.833 -7 22.5 -13
s9.66699 -14 12 -24s3.5 -22.333 3.5 -37c0 -14 -1.16699 -26 -3.5 -36s-6.33301 -18.167 -12 -24.5s-13.167 -10.833 -22.5 -13.5s-21.333 -4 -36 -4c-14 0 -25.833 1.33301 -35.5 4s-17.334 7.16699 -23.001 13.5s-9.66699 14.5 -12 24.5s-3.5 22 -3.5 36z" />
    <glyph glyph-name="f_imacron.liga" unicode="f&#x12b;" horiz-adv-x="1075" 
d="M909 20c0 -4 -0.993164 -7.66406 -2.99316 -10.9971s-5.16699 -6 -9.5 -8s-10.333 -3.66699 -18 -5s-17.5 -2 -29.5 -2c-11.333 0 -20.833 0.666992 -28.5 2s-13.834 3 -18.501 5s-7.83398 4.66699 -9.50098 8s-2.5 7 -2.5 11v825h-463v-825c0 -4 -1 -7.66699 -3 -11
s-5.16699 -6 -9.5 -8s-10.5 -3.66699 -18.5 -5s-17.667 -2 -29 -2s-20.833 0.666992 -28.5 2s-13.834 3 -18.501 5s-7.83398 4.66699 -9.50098 8s-2.5 7 -2.5 11v825h-136c-9.33301 0 -16.5 4.16699 -21.5 12.5s-7.5 20.833 -7.5 37.5c0 8.66699 0.666992 16.167 2 22.5
s3.16602 11.666 5.49902 15.999s5.33301 7.5 9 9.5s7.83398 3 12.501 3h136v126c0 58 5.83301 107.667 17.5 149s28.5 75.166 50.5 101.499s48.667 45.833 80 58.5s66.666 19 105.999 19c10 0 19.833 -0.333008 29.5 -1s18.834 -1.66699 27.501 -3s16.834 -3 24.501 -5
s14.167 -4 19.5 -6s9.66602 -4.5 12.999 -7.5s6 -6.83301 8 -11.5s3.5 -10.334 4.5 -17.001s1.5 -14.334 1.5 -23.001c0 -15.333 -1.66699 -26.666 -5 -33.999s-8.66602 -11 -15.999 -11c-5.33301 0 -10.833 0.833008 -16.5 2.5s-12.834 3.66699 -21.501 6
s-18.834 4.33301 -30.501 6s-25.834 2.5 -42.501 2.5c-46.667 0 -80.334 -18.5 -101.001 -55.5s-30.667 -93.833 -30 -170.5v-126h545c13.333 0 22.833 -3.83301 28.5 -11.5s8.5 -17.5 8.5 -29.5v-885zM1064.01 1277c4 0 7.66699 -1 11 -3s6.16602 -5 8.49902 -9
s4 -9.16699 5 -15.5s1.5 -13.833 1.5 -22.5c0 -8 -0.5 -15 -1.5 -21s-2.66699 -11.167 -5 -15.5s-5.16602 -7.66602 -8.49902 -9.99902s-7 -3.5 -11 -3.5h-415c-4.66699 0 -8.83398 1.16699 -12.501 3.5s-6.66699 5.66602 -9 9.99902s-4 9.5 -5 15.5s-1.5 13 -1.5 21
c0 8.66699 0.5 16.167 1.5 22.5s2.66699 11.5 5 15.5s5.33301 7 9 9s7.83398 3 12.501 3h415z" />
    <glyph glyph-name="f_ibreve.liga" unicode="f&#x12d;" horiz-adv-x="1075" 
d="M909 20c0 -4 -0.994141 -7.66406 -2.99414 -10.9971s-5.16699 -6 -9.5 -8s-10.333 -3.66699 -18 -5s-17.167 -2 -28.5 -2c-12 0 -21.833 0.666992 -29.5 2s-13.834 3 -18.501 5s-7.83398 4.66699 -9.50098 8s-2.5 7 -2.5 11v825h-463v-825c0 -4 -1 -7.66699 -3 -11
s-5.16699 -6 -9.5 -8s-10.333 -3.66699 -18 -5s-17.5 -2 -29.5 -2c-11.333 0 -20.833 0.666992 -28.5 2s-13.834 3 -18.501 5s-7.83398 4.66699 -9.50098 8s-2.5 7 -2.5 11v825h-136c-9.33301 0 -16.5 4.16699 -21.5 12.5s-7.5 20.833 -7.5 37.5
c0 8.66699 0.666992 16.167 2 22.5s3.16602 11.666 5.49902 15.999s5.33301 7.5 9 9.5s7.83398 3 12.501 3h136v126c0 58 5.83301 107.667 17.5 149s28.5 75.166 50.5 101.499s48.667 45.833 80 58.5s66.666 19 105.999 19c10 0 19.833 -0.333008 29.5 -1
s18.834 -1.66699 27.501 -3s16.834 -3 24.501 -5s14.167 -4 19.5 -6s9.66602 -4.5 12.999 -7.5s6 -6.83301 8 -11.5s3.5 -10.334 4.5 -17.001s1.5 -14.334 1.5 -23.001c0 -15.333 -1.66699 -26.666 -5 -33.999s-8.66602 -11 -15.999 -11
c-5.33301 0 -10.833 0.833008 -16.5 2.5s-12.834 3.66699 -21.501 6s-18.834 4.33301 -30.501 6s-25.834 2.5 -42.501 2.5c-46.667 0 -80.167 -18.5 -100.5 -55.5s-30.5 -93.833 -30.5 -170.5v-126h545c13.333 0 22.833 -3.83301 28.5 -11.5s8.5 -17.5 8.5 -29.5v-885z
M992.006 1361c0 7.33301 3.00293 13.166 9.00293 17.499s18.333 6.5 37 6.5c19.333 0 31.666 -1.83301 36.999 -5.5s8 -9.83398 8 -18.501c0 -45.333 -4.83301 -84.666 -14.5 -117.999s-24 -61 -43 -83s-42.667 -38.5 -71 -49.5s-61.5 -16.5 -99.5 -16.5
c-41.333 0 -76.5 5.83301 -105.5 17.5s-52.5 28.834 -70.5 51.501s-31.167 50.167 -39.5 82.5s-12.5 69.5 -12.5 111.5c0 9.33301 3 16.333 9 21s17.667 7 35 7c9.33301 0 17 -0.5 23 -1.5s10.667 -2.5 14 -4.5s5.66602 -4.5 6.99902 -7.5s2 -6.5 2 -10.5
c1.33301 -26.667 4.66602 -50.667 9.99902 -72s13.333 -39.5 24 -54.5s24.5 -26.5 41.5 -34.5s37.833 -12 62.5 -12c20 0 38.167 3.16699 54.5 9.5s30.333 16.5 42 30.5s21 31.833 28 53.5s11.167 48.167 12.5 79.5z" />
    <glyph glyph-name="f_iogonek.liga" unicode="f&#x12f;" horiz-adv-x="1057" 
d="M908 1229c0 -15.333 -1.16699 -28.166 -3.5 -38.499s-6.33301 -18.666 -12 -24.999s-13.5 -10.833 -23.5 -13.5s-22.667 -4 -38 -4s-28 1.33301 -38 4s-18 7.16699 -24 13.5s-10.167 14.666 -12.5 24.999s-3.5 23.166 -3.5 38.499s1.16699 28.166 3.5 38.499
s6.5 18.833 12.5 25.5s14 11.334 24 14.001s22.667 4 38 4s28 -1.33301 38 -4s17.833 -7.33398 23.5 -14.001s9.66699 -15.167 12 -25.5s3.5 -23.166 3.5 -38.499zM890 20c0 -14.667 -1.49609 -26.1719 -4.49609 -34.5049s-7.16699 -15.166 -12.5 -20.499l-81 -82
c-11.333 -11.333 -20.333 -21.333 -27 -30s-11.667 -16.5 -15 -23.5s-5.5 -13.5 -6.5 -19.5s-1.5 -12 -1.5 -18c0 -20 6.5 -34.833 19.5 -44.5s32.833 -14.5 59.5 -14.5h121c4 0 7.5 -0.5 10.5 -1.5s5.5 -3 7.5 -6s3.5 -7.16699 4.5 -12.5s1.5 -12.333 1.5 -21
c0 -7.33301 -0.5 -13.333 -1.5 -18s-2.5 -8.66699 -4.5 -12s-5 -5.83301 -9 -7.5s-9 -3.16699 -15 -4.5c-20.667 -5.33301 -41.334 -9.16602 -62.001 -11.499s-42.667 -3.5 -66 -3.5c-28.667 0 -54.167 3.16699 -76.5 9.5s-41.333 15.5 -57 27.5s-27.5 26.833 -35.5 44.5
s-12 38.167 -12 61.5c0 9.33301 0.666992 19.333 2 30s4.66602 22.334 9.99902 35.001s13.166 26.5 23.499 41.5s24.833 31.833 43.5 50.5l65 65v845h-444v-825c0 -4 -1 -7.66699 -3 -11s-5.16699 -6 -9.5 -8s-10.333 -3.66699 -18 -5s-17.5 -2 -29.5 -2
c-11.333 0 -20.833 0.666992 -28.5 2s-13.834 3 -18.501 5s-7.83398 4.66699 -9.50098 8s-2.5 7 -2.5 11v825h-136c-9.33301 0 -16.5 4.16699 -21.5 12.5s-7.5 20.833 -7.5 37.5c0 8.66699 0.666992 16.167 2 22.5s3.16602 11.666 5.49902 15.999s5.33301 7.5 9 9.5
s7.83398 3 12.501 3h136v107c0 62.667 5.83301 116 17.5 160s28.834 79.833 51.501 107.5s50.5 47.834 83.5 60.501s70.5 19 112.5 19c14.667 0 29 -0.666992 43 -2s26.833 -3.16602 38.5 -5.49902s21.667 -5 30 -8s14 -6 17 -9s5.5 -6.16699 7.5 -9.5
s3.5 -7.16602 4.5 -11.499s1.83301 -9.5 2.5 -15.5s1 -13 1 -21c0 -14.667 -1.5 -25.667 -4.5 -33s-8.16699 -11 -15.5 -11c-5.33301 0 -11 1.16699 -17 3.5s-13.833 5 -23.5 8s-21.5 5.83301 -35.5 8.5s-31.333 4 -52 4c-52 0 -88.833 -19.5 -110.5 -58.5
s-32.167 -101.167 -31.5 -186.5v-107h526c13.333 0 22.833 -3.83301 28.5 -11.5s8.5 -17.5 8.5 -29.5v-885z" />
    <glyph glyph-name="f_dotlessi.liga" unicode="f&#x131;" horiz-adv-x="1057" 
d="M890 20c0 -4 -0.99707 -7.66797 -2.99707 -11.001s-5.16699 -6 -9.5 -8s-10.333 -3.66699 -18 -5s-17.167 -2 -28.5 -2c-12 0 -21.833 0.666992 -29.5 2s-13.667 3 -18 5s-7.5 4.66699 -9.5 8s-3 7 -3 11v825h-444v-825c0 -4 -1 -7.66699 -3 -11s-5.16699 -6 -9.5 -8
s-10.333 -3.66699 -18 -5s-17.5 -2 -29.5 -2c-11.333 0 -20.833 0.666992 -28.5 2s-13.834 3 -18.501 5s-7.83398 4.66699 -9.50098 8s-2.5 7 -2.5 11v825h-136c-9.33301 0 -16.5 4.16699 -21.5 12.5s-7.5 20.833 -7.5 37.5c0 8.66699 0.666992 16.167 2 22.5
s3.16602 11.666 5.49902 15.999s5.33301 7.5 9 9.5s7.83398 3 12.501 3h136v107c0 62.667 5.83301 116 17.5 160s29 79.833 52 107.5s51.5 47.834 85.5 60.501s73 19 117 19c25.333 0 48.666 -2.16699 69.999 -6.5s37.5 -9 48.5 -14s18.333 -9.33301 22 -13
s6.66699 -8.16699 9 -13.5s4 -11.5 5 -18.5s1.5 -14.833 1.5 -23.5c0 -15.333 -1.5 -26.666 -4.5 -33.999s-8.16699 -11 -15.5 -11c-5.33301 0 -12 1.66699 -20 5s-17.833 7 -29.5 11s-25 7.66699 -40 11s-31.833 5 -50.5 5c-55.333 0 -94 -19.5 -116 -58.5
s-33 -101.167 -33 -186.5v-107h526c13.333 0 22.833 -3.83301 28.5 -11.5s8.5 -17.5 8.5 -29.5v-885z" />
    <glyph glyph-name="f_f_igrave.liga" unicode="ff&#xec;" horiz-adv-x="1620" 
d="M1454 20c0 -4 -0.990234 -7.66699 -2.99023 -11s-5.16699 -6 -9.5 -8s-10.333 -3.66699 -18 -5s-17.5 -2 -29.5 -2c-11.333 0 -20.833 0.666992 -28.5 2s-13.834 3 -18.501 5s-7.83398 4.66699 -9.50098 8s-2.5 7 -2.5 11v825h-445v-825c0 -4 -1 -7.66699 -3 -11
s-5.16699 -6 -9.5 -8s-10.333 -3.66699 -18 -5s-17.167 -2 -28.5 -2c-12 0 -21.833 0.666992 -29.5 2s-13.667 3 -18 5s-7.5 4.66699 -9.5 8s-3 7 -3 11v825h-444v-825c0 -4 -1 -7.66699 -3 -11s-5.16699 -6 -9.5 -8s-10.5 -3.66699 -18.5 -5s-17.667 -2 -29 -2
s-20.833 0.666992 -28.5 2s-13.834 3 -18.501 5s-7.83398 4.66699 -9.50098 8s-2.5 7 -2.5 11v825h-136c-9.33301 0 -16.5 4.16699 -21.5 12.5s-7.5 20.833 -7.5 37.5c0 8.66699 0.666992 16.167 2 22.5s3.16602 11.666 5.49902 15.999s5.33301 7.5 9 9.5
s7.83398 3 12.501 3h136v96c0 62.667 5.83301 116 17.5 160s29 79.833 52 107.5s51.5 47.834 85.5 60.501s73 19 117 19c29.333 0 54.666 -2.66699 75.999 -8s36.5 -10 45.5 -14s15.333 -7.83301 19 -11.5s6.66699 -8.16699 9 -13.5s4 -11.5 5 -18.5s1.5 -14.833 1.5 -23.5
c0 -15.333 -1.5 -26.666 -4.5 -33.999s-8.16699 -11 -15.5 -11c-5.33301 0 -12 1.66699 -20 5s-17.833 7 -29.5 11s-25 7.66699 -40 11s-31.833 5 -50.5 5c-55.333 0 -94 -19.5 -116 -58.5s-33 -101.167 -33 -186.5v-96h444v126c0 58 5.83301 107.667 17.5 149
s28.5 75.166 50.5 101.499s48.667 45.833 80 58.5s66.666 19 105.999 19c19.333 0 39.166 -1.5 59.499 -4.5s34.833 -6.33301 43.5 -10s14.834 -7.5 18.501 -11.5s6.66699 -8.66699 9 -14s4 -11.5 5 -18.5s1.5 -14.833 1.5 -23.5c0 -14.667 -1.5 -25.667 -4.5 -33
s-8.16699 -11 -15.5 -11c-5.33301 0 -11.333 1.16699 -18 3.5s-14.834 5 -24.501 8s-20.834 5.83301 -33.501 8.5s-27.334 4 -44.001 4c-46.667 0 -80.334 -18.5 -101.001 -55.5s-31 -93.833 -31 -170.5v-126h526c13.333 0 23 -3.83301 29 -11.5s9 -17.5 9 -29.5v-885z
M1446.01 1133c2 -6 3.16992 -11.333 3.50293 -16s-0.833984 -8.5 -3.50098 -11.5s-7 -5.33301 -13 -7s-14 -2.5 -24 -2.5s-18.333 0.333008 -25 1s-12 2 -16 4s-7.5 4.83301 -10.5 8.5s-6.16699 8.83398 -9.5 15.501l-124 234c-3.33301 6 -4.83301 11.5 -4.5 16.5
s2.66602 9.33301 6.99902 13s10.666 6.5 18.999 8.5s18.833 3 31.5 3s23 -0.5 31 -1.5s14.5 -2.66699 19.5 -5s9 -5.83301 12 -10.5s5.83301 -10.334 8.5 -17.001z" />
    <glyph glyph-name="f_f_iacute.liga" unicode="ff&#xed;" horiz-adv-x="1620" 
d="M1441.5 1c-8.33301 -4.66699 -24.1641 -7.00488 -47.4971 -7.00488s-39 2.33301 -47 7s-12 11 -12 19v825h-445v-825c0 -8 -4 -14.333 -12 -19s-23.667 -7 -47 -7s-39.166 2.33301 -47.499 7s-12.5 11 -12.5 19v825h-444v-825c0 -8 -4.16699 -14.333 -12.5 -19
s-24.166 -7 -47.499 -7s-39 2.33301 -47 7s-12 11 -12 19v825h-136c-19.333 0 -29 16.667 -29 50c0 34 9.66699 51 29 51h136v96c0 62.667 5.83301 116 17.5 160s29 79.833 52 107.5s51.5 47.834 85.5 60.501s73 19 117 19c29.333 0 54.666 -2.66699 75.999 -8
s38 -10.666 50 -15.999c11.333 -5.33301 19.166 -13.166 23.499 -23.499s6.5 -24.166 6.5 -41.499c0 -30 -6.66699 -45 -20 -45c-5.33301 0 -12 1.66699 -20 5s-17.833 7 -29.5 11s-25 7.66699 -40 11s-31.833 5 -50.5 5c-55.333 0 -94 -19.5 -116 -58.5
s-33 -101.167 -33 -186.5v-96h444v126c0 58 5.83301 107.667 17.5 149s28.5 75.166 50.5 101.499s48.667 45.833 80 58.5s66.666 19 105.999 19c19.333 0 38.333 -1.5 57 -4.5s33.667 -6.5 45 -10.5c9.33301 -3.33301 16 -9.66602 20 -18.999s6 -22.666 6 -39.999
c0 -30 -6.66699 -45 -20 -45c-5.33301 0 -11 0.833008 -17 2.5l-21.5 6c-8.33301 2.33301 -18.333 4.33301 -30 6s-25.834 2.5 -42.501 2.5c-46.667 0 -80.334 -18.5 -101.001 -55.5s-31 -93.833 -31 -170.5v-126h526c13.333 0 23 -3.83301 29 -11.5s9 -17.5 9 -29.5v-885
c0 -8 -4.16699 -14.333 -12.5 -19zM1494 1366c4 6.66699 8.33398 12.334 13.001 17.001s10.167 8.16699 16.5 10.5s14 4 23 5s19.833 1.5 32.5 1.5s23 -1 31 -3s13.667 -4.83301 17 -8.5s4.5 -8 3.5 -13s-3.83301 -10.5 -8.5 -16.5l-174 -234
c-4.66699 -6.66699 -8.83398 -11.834 -12.501 -15.501s-7.83398 -6.5 -12.501 -8.5s-10.334 -3.33301 -17.001 -4s-15 -1 -25 -1s-18.167 0.833008 -24.5 2.5s-10.666 4 -12.999 7s-3.16602 6.83301 -2.49902 11.5s3 10 7 16z" />
    <glyph glyph-name="f_f_icircumflex.liga" unicode="ff&#xee;" horiz-adv-x="1620" 
d="M1454 20c0 -4 -0.990234 -7.66699 -2.99023 -11s-5.16699 -6 -9.5 -8s-10.333 -3.66699 -18 -5s-17.5 -2 -29.5 -2c-11.333 0 -20.833 0.666992 -28.5 2s-13.834 3 -18.501 5s-7.83398 4.66699 -9.50098 8s-2.5 7 -2.5 11v825h-445v-825c0 -4 -1 -7.66699 -3 -11
s-5.16699 -6 -9.5 -8s-10.333 -3.66699 -18 -5s-17.167 -2 -28.5 -2c-12 0 -21.833 0.666992 -29.5 2s-13.667 3 -18 5s-7.5 4.66699 -9.5 8s-3 7 -3 11v825h-444v-825c0 -4 -1 -7.66699 -3 -11s-5.16699 -6 -9.5 -8s-10.5 -3.66699 -18.5 -5s-17.667 -2 -29 -2
s-20.833 0.666992 -28.5 2s-13.834 3 -18.501 5s-7.83398 4.66699 -9.50098 8s-2.5 7 -2.5 11v825h-136c-9.33301 0 -16.5 4.16699 -21.5 12.5s-7.5 20.833 -7.5 37.5c0 8.66699 0.666992 16.167 2 22.5s3.16602 11.666 5.49902 15.999s5.33301 7.5 9 9.5
s7.83398 3 12.501 3h136v96c0 62.667 5.83301 116 17.5 160s29 79.833 52 107.5s51.5 47.834 85.5 60.501s73 19 117 19c29.333 0 54.666 -2.66699 75.999 -8s36.5 -10 45.5 -14s15.333 -7.83301 19 -11.5s6.66699 -8.16699 9 -13.5s4 -11.5 5 -18.5s1.5 -14.833 1.5 -23.5
c0 -15.333 -1.5 -26.666 -4.5 -33.999s-8.16699 -11 -15.5 -11c-5.33301 0 -12 1.66699 -20 5s-17.833 7 -29.5 11s-25 7.66699 -40 11s-31.833 5 -50.5 5c-55.333 0 -94 -19.5 -116 -58.5s-33 -101.167 -33 -186.5v-96h444v126c0 58 5.83301 107.667 17.5 149
s28.5 75.166 50.5 101.499s48.667 45.833 80 58.5s66.666 19 105.999 19c19.333 0 39.166 -1.5 59.499 -4.5s34.833 -6.33301 43.5 -10s14.834 -7.5 18.501 -11.5s6.66699 -8.66699 9 -14s4 -11.5 5 -18.5s1.5 -14.833 1.5 -23.5c0 -14.667 -1.5 -25.667 -4.5 -33
s-8.16699 -11 -15.5 -11c-5.33301 0 -11.333 1.16699 -18 3.5s-14.834 5 -24.501 8s-20.834 5.83301 -33.501 8.5s-27.334 4 -44.001 4c-46.667 0 -80.334 -18.5 -101.001 -55.5s-31 -93.833 -31 -170.5v-126h526c13.333 0 23 -3.83301 29 -11.5s9 -17.5 9 -29.5v-885z
M1270.01 1122c-4 -5.33301 -7.66797 -9.66895 -11.001 -13.002s-7.33301 -6 -12 -8s-10 -3.33301 -16 -4s-13.333 -1 -22 -1c-13.333 0 -23.5 1 -30.5 3s-11.5 5 -13.5 9s-1.83301 9.16699 0.5 15.5s6.83301 13.833 13.5 22.5l165 232
c3.33301 4.66699 6.66602 8.33398 9.99902 11.001s7.5 4.83398 12.5 6.50098s11.333 2.83398 19 3.50098s17.5 1 29.5 1c10 0 18.333 -0.333008 25 -1s12.334 -2 17.001 -4s8.66699 -4.33301 12 -7s6.66602 -6 9.99902 -10l165 -232c6 -8.66699 10.333 -16.167 13 -22.5
s2.83398 -11.5 0.500977 -15.5s-7.16602 -7 -14.499 -9s-17.333 -3 -30 -3c-10 0 -18 0.333008 -24 1s-11.167 2 -15.5 4s-8 4.66699 -11 8s-6.5 7.66602 -10.5 12.999l-141 198z" />
    <glyph glyph-name="f_f_itilde.liga" unicode="ff&#x129;" horiz-adv-x="1639" 
d="M1472 20c0 -4 -0.994141 -7.66602 -2.99414 -10.999s-5.16699 -6 -9.5 -8s-10.333 -3.66699 -18 -5s-17.167 -2 -28.5 -2c-12 0 -21.833 0.666992 -29.5 2s-13.667 3 -18 5s-7.5 4.66699 -9.5 8s-3 7 -3 11v825h-463v-825c0 -4 -1 -7.66699 -3 -11s-5.16699 -6 -9.5 -8
s-10.333 -3.66699 -18 -5s-17.167 -2 -28.5 -2c-12 0 -21.833 0.666992 -29.5 2s-13.667 3 -18 5s-7.5 4.66699 -9.5 8s-3 7 -3 11v825h-444v-825c0 -4 -1 -7.66699 -3 -11s-5.16699 -6 -9.5 -8s-10.333 -3.66699 -18 -5s-17.5 -2 -29.5 -2
c-11.333 0 -20.833 0.666992 -28.5 2s-13.834 3 -18.501 5s-7.83398 4.66699 -9.50098 8s-2.5 7 -2.5 11v825h-136c-9.33301 0 -16.5 4.16699 -21.5 12.5s-7.5 20.833 -7.5 37.5c0 8.66699 0.666992 16.167 2 22.5s3.16602 11.666 5.49902 15.999s5.33301 7.5 9 9.5
s7.83398 3 12.501 3h136v96c0 62.667 5.83301 116 17.5 160s29 79.833 52 107.5s51.5 47.834 85.5 60.501s73 19 117 19c29.333 0 54.666 -2.66699 75.999 -8s36.5 -10 45.5 -14s15.333 -7.83301 19 -11.5s6.66699 -8.16699 9 -13.5s4 -11.5 5 -18.5s1.5 -14.833 1.5 -23.5
c0 -15.333 -1.5 -26.666 -4.5 -33.999s-8.16699 -11 -15.5 -11c-5.33301 0 -12 1.66699 -20 5s-17.833 7 -29.5 11s-25 7.66699 -40 11s-31.833 5 -50.5 5c-55.333 0 -94 -19.5 -116 -58.5s-33 -101.167 -33 -186.5v-96h444v126c0 58 5.83301 107.667 17.5 149
s28.5 75.166 50.5 101.499s48.667 45.833 80 58.5s66.666 19 105.999 19c19.333 0 38.333 -1.33301 57 -4s32 -5.66699 40 -9s13.667 -6.5 17 -9.5s6 -6.83301 8 -11.5s3.5 -10.334 4.5 -17.001s1.5 -14.334 1.5 -23.001c0 -15.333 -1.5 -26.666 -4.5 -33.999
s-8.16699 -11 -15.5 -11c-5.33301 0 -11 0.833008 -17 2.5l-21.5 6c-8.33301 2.33301 -18.333 4.33301 -30 6s-25.834 2.5 -42.501 2.5c-46.667 0 -80.334 -18.5 -101.001 -55.5s-31 -93.833 -31 -170.5v-126h545c13.333 0 22.833 -3.83301 28.5 -11.5s8.5 -17.5 8.5 -29.5
v-885zM1693.01 1283c0 -32.667 -3.99805 -61.332 -11.998 -85.999s-19 -45.5 -33 -62.5s-30.667 -29.833 -50 -38.5s-40.333 -13 -63 -13c-32.667 0 -60.334 7.33301 -83.001 22s-43 31 -61 49l-49.5 49c-15 14.667 -30.833 22 -47.5 22c-22 0 -38 -10.833 -48 -32.5
s-15 -49.5 -15 -83.5c0 -9.33301 -3.16699 -16 -9.5 -20s-19.166 -6 -38.499 -6c-16 0 -27.667 2.66699 -35 8s-11 16.666 -11 33.999c0 60.667 14.167 109.334 42.5 146.001s67.166 55 116.499 55c21.333 0 40.5 -3.5 57.5 -10.5s32.667 -15.833 47 -26.5
s27.333 -22.167 39 -34.5l33.5 -34.5c10.667 -10.667 21.167 -19.5 31.5 -26.5s21.166 -10.5 32.499 -10.5c19.333 0 34.333 9.66699 45 29s16 48.666 16 87.999c0 9.33301 3.5 16 10.5 20s18.5 6 34.5 6c18.667 0 31.667 -2.83301 39 -8.5s11 -17.167 11 -34.5z" />
    <glyph glyph-name="f_f_idieresis.liga" unicode="ff&#xef;" horiz-adv-x="1639" 
d="M1472 20c0 -4 -0.994141 -7.66602 -2.99414 -10.999s-5.16699 -6 -9.5 -8s-10.333 -3.66699 -18 -5s-17.167 -2 -28.5 -2c-12 0 -21.833 0.666992 -29.5 2s-13.667 3 -18 5s-7.5 4.66699 -9.5 8s-3 7 -3 11v825h-463v-825c0 -4 -1 -7.66699 -3 -11s-5.16699 -6 -9.5 -8
s-10.333 -3.66699 -18 -5s-17.167 -2 -28.5 -2c-12 0 -21.833 0.666992 -29.5 2s-13.667 3 -18 5s-7.5 4.66699 -9.5 8s-3 7 -3 11v825h-444v-825c0 -4 -1 -7.66699 -3 -11s-5.16699 -6 -9.5 -8s-10.333 -3.66699 -18 -5s-17.5 -2 -29.5 -2
c-11.333 0 -20.833 0.666992 -28.5 2s-13.834 3 -18.501 5s-7.83398 4.66699 -9.50098 8s-2.5 7 -2.5 11v825h-136c-9.33301 0 -16.5 4.16699 -21.5 12.5s-7.5 20.833 -7.5 37.5c0 8.66699 0.666992 16.167 2 22.5s3.16602 11.666 5.49902 15.999s5.33301 7.5 9 9.5
s7.83398 3 12.501 3h136v96c0 62.667 5.83301 116 17.5 160s29 79.833 52 107.5s51.5 47.834 85.5 60.501s73 19 117 19c29.333 0 54.666 -2.66699 75.999 -8s36.5 -10 45.5 -14s15.333 -7.83301 19 -11.5s6.66699 -8.16699 9 -13.5s4 -11.5 5 -18.5s1.5 -14.833 1.5 -23.5
c0 -15.333 -1.5 -26.666 -4.5 -33.999s-8.16699 -11 -15.5 -11c-5.33301 0 -12 1.66699 -20 5s-17.833 7 -29.5 11s-25 7.66699 -40 11s-31.833 5 -50.5 5c-55.333 0 -94 -19.5 -116 -58.5s-33 -101.167 -33 -186.5v-96h444v126c0 58 5.83301 107.667 17.5 149
s28.5 75.166 50.5 101.499s48.667 45.833 80 58.5s66.666 19 105.999 19c19.333 0 38.333 -1.33301 57 -4s32 -5.66699 40 -9s13.667 -6.5 17 -9.5s6 -6.83301 8 -11.5s3.5 -10.334 4.5 -17.001s1.5 -14.334 1.5 -23.001c0 -15.333 -1.5 -26.666 -4.5 -33.999
s-8.16699 -11 -15.5 -11c-5.33301 0 -11 0.833008 -17 2.5l-21.5 6c-8.33301 2.33301 -18.333 4.33301 -30 6s-25.834 2.5 -42.501 2.5c-46.667 0 -80.334 -18.5 -101.001 -55.5s-31 -93.833 -31 -170.5v-126h545c13.333 0 22.833 -3.83301 28.5 -11.5s8.5 -17.5 8.5 -29.5
v-885zM1213.01 1229c0 14.667 1.16699 27 3.5 37s6.33301 18 12 24s13.167 10.333 22.5 13s21.333 4 36 4c14 0 25.833 -1.33301 35.5 -4s17.334 -7 23.001 -13s9.66699 -14 12 -24s3.5 -22.333 3.5 -37c0 -14 -1.16699 -26 -3.5 -36s-6.33301 -18.167 -12 -24.5
s-13.334 -10.833 -23.001 -13.5s-21.5 -4 -35.5 -4c-14.667 0 -26.667 1.33301 -36 4s-16.833 7.16699 -22.5 13.5s-9.66699 14.5 -12 24.5s-3.5 22 -3.5 36zM1491.01 1229c0 14.667 1.16699 27 3.5 37s6.33301 18 12 24s13.167 10.333 22.5 13s21.333 4 36 4
c14 0 25.833 -1.33301 35.5 -4s17.334 -7 23.001 -13s9.66699 -14 12 -24s3.5 -22.333 3.5 -37c0 -14 -1.16699 -26 -3.5 -36s-6.33301 -18.167 -12 -24.5s-13.334 -10.833 -23.001 -13.5s-21.5 -4 -35.5 -4c-14.667 0 -26.667 1.33301 -36 4s-16.833 7.16699 -22.5 13.5
s-9.66699 14.5 -12 24.5s-3.5 22 -3.5 36z" />
    <glyph glyph-name="f_f_imacron.liga" unicode="ff&#x12b;" horiz-adv-x="1639" 
d="M1472 20c0 -4 -0.994141 -7.66602 -2.99414 -10.999s-5.16699 -6 -9.5 -8s-10.333 -3.66699 -18 -5s-17.167 -2 -28.5 -2c-12 0 -21.833 0.666992 -29.5 2s-13.667 3 -18 5s-7.5 4.66699 -9.5 8s-3 7 -3 11v825h-463v-825c0 -4 -1 -7.66699 -3 -11s-5.16699 -6 -9.5 -8
s-10.333 -3.66699 -18 -5s-17.167 -2 -28.5 -2c-12 0 -21.833 0.666992 -29.5 2s-13.667 3 -18 5s-7.5 4.66699 -9.5 8s-3 7 -3 11v825h-444v-825c0 -4 -1 -7.66699 -3 -11s-5.16699 -6 -9.5 -8s-10.333 -3.66699 -18 -5s-17.5 -2 -29.5 -2
c-11.333 0 -20.833 0.666992 -28.5 2s-13.834 3 -18.501 5s-7.83398 4.66699 -9.50098 8s-2.5 7 -2.5 11v825h-136c-9.33301 0 -16.5 4.16699 -21.5 12.5s-7.5 20.833 -7.5 37.5c0 8.66699 0.666992 16.167 2 22.5s3.16602 11.666 5.49902 15.999s5.33301 7.5 9 9.5
s7.83398 3 12.501 3h136v96c0 62.667 5.83301 116 17.5 160s29 79.833 52 107.5s51.5 47.834 85.5 60.501s73 19 117 19c29.333 0 54.666 -2.66699 75.999 -8s36.5 -10 45.5 -14s15.333 -7.83301 19 -11.5s6.66699 -8.16699 9 -13.5s4 -11.5 5 -18.5s1.5 -14.833 1.5 -23.5
c0 -15.333 -1.5 -26.666 -4.5 -33.999s-8.16699 -11 -15.5 -11c-5.33301 0 -12 1.66699 -20 5s-17.833 7 -29.5 11s-25 7.66699 -40 11s-31.833 5 -50.5 5c-55.333 0 -94 -19.5 -116 -58.5s-33 -101.167 -33 -186.5v-96h444v126c0 58 5.83301 107.667 17.5 149
s28.5 75.166 50.5 101.499s48.667 45.833 80 58.5s66.666 19 105.999 19c19.333 0 38.333 -1.33301 57 -4s32 -5.66699 40 -9s13.667 -6.5 17 -9.5s6 -6.83301 8 -11.5s3.5 -10.334 4.5 -17.001s1.5 -14.334 1.5 -23.001c0 -15.333 -1.5 -26.666 -4.5 -33.999
s-8.16699 -11 -15.5 -11c-5.33301 0 -11 0.833008 -17 2.5l-21.5 6c-8.33301 2.33301 -18.333 4.33301 -30 6s-25.834 2.5 -42.501 2.5c-46.667 0 -80.334 -18.5 -101.001 -55.5s-31 -93.833 -31 -170.5v-126h545c13.333 0 22.833 -3.83301 28.5 -11.5s8.5 -17.5 8.5 -29.5
v-885zM1628.01 1277c4 0 7.66797 -1 11.001 -3s6 -5 8 -9s3.66699 -9.16699 5 -15.5s2 -13.833 2 -22.5c0 -8 -0.666992 -15 -2 -21s-3 -11.167 -5 -15.5s-4.66699 -7.66602 -8 -9.99902s-7 -3.5 -11 -3.5h-415c-4.66699 0 -8.83398 1.16699 -12.501 3.5
s-6.66699 5.66602 -9 9.99902s-4 9.5 -5 15.5s-1.5 13 -1.5 21c0 16.667 2.33301 29.167 7 37.5s11.667 12.5 21 12.5h415z" />
    <glyph glyph-name="f_f_ibreve.liga" unicode="ff&#x12d;" horiz-adv-x="1639" 
d="M1472 20c0 -4 -0.994141 -7.66602 -2.99414 -10.999s-5.16699 -6 -9.5 -8s-10.333 -3.66699 -18 -5s-17.167 -2 -28.5 -2c-12 0 -21.833 0.666992 -29.5 2s-13.667 3 -18 5s-7.5 4.66699 -9.5 8s-3 7 -3 11v825h-463v-825c0 -4 -1 -7.66699 -3 -11s-5.16699 -6 -9.5 -8
s-10.333 -3.66699 -18 -5s-17.167 -2 -28.5 -2c-12 0 -21.833 0.666992 -29.5 2s-13.667 3 -18 5s-7.5 4.66699 -9.5 8s-3 7 -3 11v825h-444v-825c0 -4 -1 -7.66699 -3 -11s-5.16699 -6 -9.5 -8s-10.333 -3.66699 -18 -5s-17.5 -2 -29.5 -2
c-11.333 0 -20.833 0.666992 -28.5 2s-13.834 3 -18.501 5s-7.83398 4.66699 -9.50098 8s-2.5 7 -2.5 11v825h-136c-9.33301 0 -16.5 4.16699 -21.5 12.5s-7.5 20.833 -7.5 37.5c0 8.66699 0.666992 16.167 2 22.5s3.16602 11.666 5.49902 15.999s5.33301 7.5 9 9.5
s7.83398 3 12.501 3h136v96c0 62.667 5.83301 116 17.5 160s29 79.833 52 107.5s51.5 47.834 85.5 60.501s73 19 117 19c29.333 0 54.666 -2.66699 75.999 -8s36.5 -10 45.5 -14s15.333 -7.83301 19 -11.5s6.66699 -8.16699 9 -13.5s4 -11.5 5 -18.5s1.5 -14.833 1.5 -23.5
c0 -15.333 -1.5 -26.666 -4.5 -33.999s-8.16699 -11 -15.5 -11c-5.33301 0 -12 1.66699 -20 5s-17.833 7 -29.5 11s-25 7.66699 -40 11s-31.833 5 -50.5 5c-55.333 0 -94 -19.5 -116 -58.5s-33 -101.167 -33 -186.5v-96h444v126c0 58 5.83301 107.667 17.5 149
s28.5 75.166 50.5 101.499s48.667 45.833 80 58.5s66.666 19 105.999 19c19.333 0 38.333 -1.33301 57 -4s32 -5.66699 40 -9s13.667 -6.5 17 -9.5s6 -6.83301 8 -11.5s3.5 -10.334 4.5 -17.001s1.5 -14.334 1.5 -23.001c0 -15.333 -1.5 -26.666 -4.5 -33.999
s-8.16699 -11 -15.5 -11c-5.33301 0 -11 0.833008 -17 2.5l-21.5 6c-8.33301 2.33301 -18.333 4.33301 -30 6s-25.834 2.5 -42.501 2.5c-46.667 0 -80.334 -18.5 -101.001 -55.5s-31 -93.833 -31 -170.5v-126h545c13.333 0 22.833 -3.83301 28.5 -11.5s8.5 -17.5 8.5 -29.5
v-885zM1556.01 1361c0 7.33301 2.99707 13.165 8.99707 17.498s18.333 6.5 37 6.5c10 0 17.833 -0.5 23.5 -1.5s10 -2.5 13 -4.5s5 -4.5 6 -7.5s1.5 -6.5 1.5 -10.5c0 -45.333 -4.83301 -84.666 -14.5 -117.999s-24 -61 -43 -83s-42.667 -38.5 -71 -49.5
s-61.5 -16.5 -99.5 -16.5c-41.333 0 -76.5 5.83301 -105.5 17.5s-52.5 28.834 -70.5 51.501s-31.167 50.167 -39.5 82.5s-12.5 69.5 -12.5 111.5c0 4.66699 0.666992 8.83398 2 12.501s3.83301 6.66699 7.5 9s8.33398 4 14.001 5s12.834 1.5 21.501 1.5
c18.667 0 31 -1.83301 37 -5.5s9 -9.83398 9 -18.501c1.33301 -26.667 4.66602 -50.667 9.99902 -72s13.333 -39.5 24 -54.5s24.334 -26.5 41.001 -34.5s37.334 -12 62.001 -12c40.667 0 73 13.333 97 40s37.667 71 41 133z" />
    <glyph glyph-name="f_f_iogonek.liga" unicode="ff&#x12f;" horiz-adv-x="1620" 
d="M1472 1229c0 -15.333 -1.16699 -28.166 -3.5 -38.499s-6.5 -18.666 -12.5 -24.999s-14 -10.833 -24 -13.5s-22.667 -4 -38 -4s-28 1.33301 -38 4s-18 7.16699 -24 13.5s-10.167 14.666 -12.5 24.999s-3.5 23.166 -3.5 38.499s1.16699 28.166 3.5 38.499
s6.5 18.833 12.5 25.5s14 11.334 24 14.001s22.667 4 38 4s28 -1.33301 38 -4s18 -7.33398 24 -14.001s10.167 -15.167 12.5 -25.5s3.5 -23.166 3.5 -38.499zM1530 -308c0 -7.33301 -0.496094 -13.3379 -1.49609 -18.0049s-2.5 -8.66699 -4.5 -12s-5 -5.83301 -9 -7.5
s-9 -3.16699 -15 -4.5c-20.667 -5.33301 -41.334 -9.16602 -62.001 -11.499s-42.667 -3.5 -66 -3.5c-28.667 0 -54.334 3.16699 -77.001 9.5s-41.667 15.5 -57 27.5s-27.166 26.833 -35.499 44.5s-12.5 38.167 -12.5 61.5c0 9.33301 0.666992 19.333 2 30
s4.66602 22.334 9.99902 35.001s13.333 26.5 24 41.5s25.334 31.833 44.001 50.5l65 65v845h-445v-825c0 -4 -1 -7.66699 -3 -11s-5.16699 -6 -9.5 -8s-10.333 -3.66699 -18 -5s-17.167 -2 -28.5 -2c-12 0 -21.833 0.666992 -29.5 2s-13.667 3 -18 5s-7.5 4.66699 -9.5 8
s-3 7 -3 11v825h-444v-825c0 -4 -1 -7.66699 -3 -11s-5.16699 -6 -9.5 -8s-10.333 -3.66699 -18 -5s-17.5 -2 -29.5 -2c-11.333 0 -20.833 0.666992 -28.5 2s-13.834 3 -18.501 5s-7.83398 4.66699 -9.50098 8s-2.5 7 -2.5 11v825h-136c-9.33301 0 -16.5 4.16699 -21.5 12.5
s-7.5 20.833 -7.5 37.5c0 8.66699 0.666992 16.167 2 22.5s3.16602 11.666 5.49902 15.999s5.33301 7.5 9 9.5s7.83398 3 12.501 3h136v96c0 62.667 5.83301 116 17.5 160s29 79.833 52 107.5s51.5 47.834 85.5 60.501s73 19 117 19c29.333 0 54.666 -2.66699 75.999 -8
s36.5 -10 45.5 -14s15.333 -7.83301 19 -11.5s6.66699 -8.16699 9 -13.5s4 -11.5 5 -18.5s1.5 -14.833 1.5 -23.5c0 -15.333 -1.5 -26.666 -4.5 -33.999s-8.16699 -11 -15.5 -11c-5.33301 0 -12 1.66699 -20 5s-17.833 7 -29.5 11s-25 7.66699 -40 11s-31.833 5 -50.5 5
c-55.333 0 -94 -19.5 -116 -58.5s-33 -101.167 -33 -186.5v-96h444v107c0 62.667 6 116 18 160s29.167 79.833 51.5 107.5s50 47.834 83 60.501s70.5 19 112.5 19c14.667 0 29.167 -0.666992 43.5 -2s27.166 -3.16602 38.499 -5.49902s21.166 -5 29.499 -8s14 -6 17 -9
s5.5 -6 7.5 -9s3.66699 -6.66699 5 -11s2.33301 -9.5 3 -15.5s1 -13.333 1 -22c0 -14.667 -1.5 -25.667 -4.5 -33s-8.16699 -11 -15.5 -11c-5.33301 0 -11.166 1.16699 -17.499 3.5s-14.166 5 -23.499 8s-21 5.83301 -35 8.5s-31.333 4 -52 4
c-52 0 -88.833 -19.5 -110.5 -58.5s-32.5 -101.167 -32.5 -186.5v-107h526c13.333 0 23 -3.83301 29 -11.5s9 -17.5 9 -29.5v-885c0 -8 -1.5 -17.833 -4.5 -29.5s-7.16699 -20.167 -12.5 -25.5l-82 -82c-22 -22 -35.833 -39.833 -41.5 -53.5s-8.5 -26.167 -8.5 -37.5
c0 -39.333 26.667 -59 80 -59h120c4 0 7.66699 -0.5 11 -1.5s6 -3 8 -6s3.5 -7.16699 4.5 -12.5s1.5 -12.333 1.5 -21z" />
    <glyph glyph-name="f_f_dotlessi.liga" unicode="ff&#x131;" horiz-adv-x="1620" 
d="M1441.5 1c-8.33301 -4.66699 -24.1641 -7.00488 -47.4971 -7.00488s-39 2.33301 -47 7s-12 11 -12 19v825h-445v-825c0 -8 -4 -14.333 -12 -19s-23.667 -7 -47 -7s-39.166 2.33301 -47.499 7s-12.5 11 -12.5 19v825h-444v-825c0 -8 -4.16699 -14.333 -12.5 -19
s-24.166 -7 -47.499 -7s-39 2.33301 -47 7s-12 11 -12 19v825h-136c-19.333 0 -29 16.667 -29 50c0 34 9.66699 51 29 51h136v96c0 62.667 5.83301 116 17.5 160s29 79.833 52 107.5s51.5 47.834 85.5 60.501s73 19 117 19c29.333 0 54.666 -2.66699 75.999 -8
s38 -10.666 50 -15.999c11.333 -5.33301 19.166 -13.166 23.499 -23.499s6.5 -24.166 6.5 -41.499c0 -30 -6.66699 -45 -20 -45c-5.33301 0 -12 1.66699 -20 5s-17.833 7 -29.5 11s-25 7.66699 -40 11s-31.833 5 -50.5 5c-55.333 0 -94 -19.5 -116 -58.5
s-33 -101.167 -33 -186.5v-96h444v126c0 58 5.83301 107.667 17.5 149s28.5 75.166 50.5 101.499s48.667 45.833 80 58.5s66.666 19 105.999 19c19.333 0 38.333 -1.5 57 -4.5s33.667 -6.5 45 -10.5c9.33301 -3.33301 16 -9.66602 20 -18.999s6 -22.666 6 -39.999
c0 -30 -6.66699 -45 -20 -45c-5.33301 0 -11 0.833008 -17 2.5l-21.5 6c-8.33301 2.33301 -18.333 4.33301 -30 6s-25.834 2.5 -42.501 2.5c-46.667 0 -80.334 -18.5 -101.001 -55.5s-31 -93.833 -31 -170.5v-126h526c13.333 0 23 -3.83301 29 -11.5s9 -17.5 9 -29.5v-885
c0 -8 -4.16699 -14.333 -12.5 -19z" />
    <glyph glyph-name="f_j.liga" unicode="fj" horiz-adv-x="1057" 
d="M908 1229c0 -15.333 -1.16699 -28.166 -3.5 -38.499s-6.33301 -18.666 -12 -24.999s-13.5 -10.833 -23.5 -13.5s-22.667 -4 -38 -4s-28 1.33301 -38 4s-18 7.16699 -24 13.5s-10.167 14.666 -12.5 24.999s-3.5 23.166 -3.5 38.499s1.16699 28.166 3.5 38.499
s6.5 18.833 12.5 25.5s14 11.334 24 14.001s22.667 4 38 4s28 -1.33301 38 -4s17.833 -7.33398 23.5 -14.001s9.66699 -15.167 12 -25.5s3.5 -23.166 3.5 -38.499zM890 -43c0 -58.667 -3.66309 -106.502 -10.9961 -143.502s-20.5 -68.667 -39.5 -95s-45 -46.833 -78 -61.5
s-74.833 -22 -125.5 -22c-12.667 0 -25.334 0.666992 -38.001 2s-24.834 3.33301 -36.501 6s-22 5.83398 -31 9.50098s-15.167 6.83398 -18.5 9.50098s-5.83301 5.66699 -7.5 9s-2.83398 7 -3.50098 11s-1.16699 7.66699 -1.5 11s-0.5 8.66602 -0.5 15.999
c0 8.66699 0.5 16.334 1.5 23.001s2.5 12.167 4.5 16.5s4.5 7.5 7.5 9.5s6.5 3 10.5 3c6 0 13.5 -1.83301 22.5 -5.5s21.167 -7.33398 36.5 -11.001s34.666 -5.5 57.999 -5.5c22 0 41.333 3.66699 58 11s30.334 19.5 41.001 36.5s18.667 39.167 24 66.5s8 67.666 8 120.999
v871h-444v-825c0 -4 -1 -7.66699 -3 -11s-5.16699 -6 -9.5 -8s-10.333 -3.66699 -18 -5s-17.5 -2 -29.5 -2c-11.333 0 -20.833 0.666992 -28.5 2s-13.834 3 -18.501 5s-7.83398 4.66699 -9.50098 8s-2.5 7 -2.5 11v825h-136c-9.33301 0 -16.5 4.16699 -21.5 12.5
s-7.5 20.833 -7.5 37.5c0 8.66699 0.666992 16.167 2 22.5s3.16602 11.666 5.49902 15.999s5.33301 7.5 9 9.5s7.83398 3 12.501 3h136v107c0 62.667 5.83301 116 17.5 160s28.834 79.833 51.501 107.5s50.5 47.834 83.5 60.501s70.5 19 112.5 19
c14.667 0 29 -0.666992 43 -2s26.833 -3.16602 38.5 -5.49902s21.667 -5 30 -8s14 -6 17 -9s5.5 -6.16699 7.5 -9.5s3.5 -7.16602 4.5 -11.499s1.83301 -9.5 2.5 -15.5s1 -13 1 -21c0 -14.667 -1.5 -25.667 -4.5 -33s-8.16699 -11 -15.5 -11c-5.33301 0 -11 1.16699 -17 3.5
s-13.833 5 -23.5 8s-21.5 5.83301 -35.5 8.5s-31.333 4 -52 4c-52 0 -88.667 -19.5 -110 -58.5s-32 -101.167 -32 -186.5v-107h526c13.333 0 22.833 -3.83301 28.5 -11.5s8.5 -17.5 8.5 -29.5v-948z" />
    <glyph glyph-name="f_jcircumflex.liga" unicode="f&#x135;" horiz-adv-x="1057" 
d="M890 -63c0 -45.333 -3.65918 -86.5 -10.9922 -123.5s-20.5 -68.667 -39.5 -95s-45 -46.833 -78 -61.5s-74.833 -22 -125.5 -22c-12.667 0 -25.334 0.666992 -38.001 2s-24.834 3.33301 -36.501 6s-22 5.83398 -31 9.50098s-15.167 6.83398 -18.5 9.50098
s-5.83301 5.66699 -7.5 9s-2.83398 7 -3.50098 11s-1.16699 8 -1.5 12s-0.5 9 -0.5 15c0 8.66699 0.5 16.334 1.5 23.001s2.5 12.167 4.5 16.5s4.5 7.5 7.5 9.5s6.5 3 10.5 3c6 0 15 -2.33301 27 -7s25.167 -8.33398 39.5 -11.001s31.166 -4 50.499 -4
c22 0 41.333 3.66699 58 11s30.334 19.5 41.001 36.5s18.667 39.167 24 66.5s8 61 8 101v891h-444v-825c0 -4 -1 -7.66699 -3 -11s-5.16699 -6 -9.5 -8s-10.5 -3.66699 -18.5 -5s-17.667 -2 -29 -2s-20.833 0.666992 -28.5 2s-13.834 3 -18.501 5
s-7.83398 4.66699 -9.50098 8s-2.5 7 -2.5 11v825h-136c-9.33301 0 -16.5 4.16699 -21.5 12.5s-7.5 20.833 -7.5 37.5c0 8.66699 0.666992 16.167 2 22.5s3.16602 11.666 5.49902 15.999s5.33301 7.5 9 9.5s7.83398 3 12.501 3h136v126c0 58 5.83301 107.667 17.5 149
s28.5 75.166 50.5 101.499s48.667 45.833 80 58.5s66.666 19 105.999 19c19.333 0 38.333 -1.5 57 -4.5s33 -6.33301 43 -10s17 -7.5 21 -11.5s7.16699 -8.66699 9.5 -14s4 -11.5 5 -18.5s1.5 -14.833 1.5 -23.5c0 -14.667 -1.66699 -25.667 -5 -33
s-8.66602 -11 -15.999 -11c-5.33301 0 -11.333 1.16699 -18 3.5s-14.834 5 -24.501 8s-20.834 5.83301 -33.501 8.5s-27.334 4 -44.001 4c-46.667 0 -80.167 -18.5 -100.5 -55.5s-30.5 -93.833 -30.5 -170.5v-126h526c13.333 0 22.833 -3.83301 28.5 -11.5
s8.5 -17.5 8.5 -29.5v-968zM706.008 1122c-3.33301 -5.33301 -6.83398 -9.66895 -10.501 -13.002s-7.66699 -6 -12 -8s-9.66602 -3.33301 -15.999 -4s-13.833 -1 -22.5 -1c-13.333 0 -23.5 1 -30.5 3s-11.5 5 -13.5 9s-1.66699 9.16699 1 15.5s7.33398 13.833 14.001 22.5
l165 232c3.33301 4.66699 6.66602 8.33398 9.99902 11.001s7.5 4.83398 12.5 6.50098s11.333 2.83398 19 3.50098s17.167 1 28.5 1c10 0 18.333 -0.333008 25 -1s12.5 -2 17.5 -4s9.16699 -4.33301 12.5 -7s6.66602 -6 9.99902 -10l165 -232
c6 -8.66699 10.167 -16.167 12.5 -22.5s2.33301 -11.5 0 -15.5s-7.16602 -7 -14.499 -9s-17.333 -3 -30 -3c-10 0 -18 0.333008 -24 1s-11.167 2 -15.5 4s-8 4.66699 -11 8s-6.5 7.66602 -10.5 12.999l-141 198z" />
    <glyph glyph-name="f_f_j.liga" unicode="ffj" horiz-adv-x="1620" 
d="M1472 1229c0 -15.333 -1.16699 -28.166 -3.5 -38.499s-6.5 -18.666 -12.5 -24.999s-14 -10.833 -24 -13.5s-22.667 -4 -38 -4s-28 1.33301 -38 4s-18 7.16699 -24 13.5s-10.167 14.666 -12.5 24.999s-3.5 23.166 -3.5 38.499s1.16699 28.166 3.5 38.499
s6.5 18.833 12.5 25.5s14 11.334 24 14.001s22.667 4 38 4s28 -1.33301 38 -4s18 -7.33398 24 -14.001s10.167 -15.167 12.5 -25.5s3.5 -23.166 3.5 -38.499zM771 1053c0 62.667 6.00781 115.993 18.0078 159.993s29.167 79.833 51.5 107.5s50 47.834 83 60.501
s70.5 19 112.5 19c16 0 31.167 -0.666992 45.5 -2s27.166 -3.16602 38.499 -5.49902s20.833 -5 28.5 -8s13 -6 16 -9s5.5 -6.16699 7.5 -9.5s3.5 -7.16602 4.5 -11.499s1.83301 -9.5 2.5 -15.5s1 -13 1 -21c0 -14.667 -1.5 -25.667 -4.5 -33s-8.16699 -11 -15.5 -11
c-5.33301 0 -11 1.16699 -17 3.5s-13.667 5 -23 8s-21 5.83301 -35 8.5s-31.333 4 -52 4c-52 0 -88.833 -19.5 -110.5 -58.5s-32.5 -101.167 -32.5 -186.5v-107h526c13.333 0 23 -3.83301 29 -11.5s9 -17.5 9 -29.5v-968c0 -45.333 -3.66699 -86.5 -11 -123.5
s-20.5 -68.667 -39.5 -95s-45 -46.833 -78 -61.5s-74.833 -22 -125.5 -22c-13.333 0 -26.333 0.666992 -39 2s-24.834 3.33301 -36.501 6s-22 5.83398 -31 9.50098s-15.167 6.83398 -18.5 9.50098s-5.83301 5.66699 -7.5 9s-2.83398 6.83301 -3.50098 10.5
s-1.16699 7.5 -1.5 11.5s-0.5 9.33301 -0.5 16c0 8.66699 0.5 16.334 1.5 23.001s2.5 12.167 4.5 16.5s4.5 7.5 7.5 9.5s6.5 3 10.5 3c6 0 11.833 -1.16699 17.5 -3.5s12.667 -4.83301 21 -7.5s18.666 -5.16699 30.999 -7.5s28.166 -3.5 47.499 -3.5
c22 0 41.333 3.66699 58 11s30.5 19.5 41.5 36.5s19.167 39.167 24.5 66.5s8 61 8 101v891h-445v-825c0 -4 -1 -7.66699 -3 -11s-5.16699 -6 -9.5 -8s-10.333 -3.66699 -18 -5s-17.167 -2 -28.5 -2c-12 0 -21.833 0.666992 -29.5 2s-13.667 3 -18 5s-7.5 4.66699 -9.5 8
s-3 7 -3 11v825h-444v-825c0 -4 -1 -7.66699 -3 -11s-5.16699 -6 -9.5 -8s-10.333 -3.66699 -18 -5s-17.5 -2 -29.5 -2c-11.333 0 -20.833 0.666992 -28.5 2s-13.834 3 -18.501 5s-7.83398 4.66699 -9.50098 8s-2.5 7 -2.5 11v825h-136c-9.33301 0 -16.5 4.16699 -21.5 12.5
s-7.5 20.833 -7.5 37.5c0 8.66699 0.666992 16.167 2 22.5s3.16602 11.666 5.49902 15.999s5.33301 7.5 9 9.5s7.83398 3 12.501 3h136v96c0 62.667 5.83301 116 17.5 160s29 79.833 52 107.5s51.5 47.834 85.5 60.501s73 19 117 19c29.333 0 54.666 -2.66699 75.999 -8
s36.5 -10 45.5 -14s15.333 -7.83301 19 -11.5s6.66699 -8.16699 9 -13.5s4 -11.5 5 -18.5s1.5 -14.833 1.5 -23.5c0 -15.333 -1.5 -26.666 -4.5 -33.999s-8.16699 -11 -15.5 -11c-5.33301 0 -12 1.66699 -20 5s-17.833 7 -29.5 11s-25 7.66699 -40 11s-31.833 5 -50.5 5
c-55.333 0 -94 -19.5 -116 -58.5s-33 -101.167 -33 -186.5v-96h444v107z" />
    <glyph glyph-name="f_k.liga" unicode="fk" horiz-adv-x="1507" 
d="M831 1394c11.333 0 20.8223 -0.505859 28.4893 -1.50586s13.667 -2.66699 18 -5s7.5 -5.16602 9.5 -8.49902s3 -7 3 -11v-832l382 385c4.66699 6 9.83398 10.833 15.501 14.5s11.834 6.66699 18.501 9s14.334 4 23.001 5s18.667 1.5 30 1.5s21.166 -0.333008 29.499 -1
s15.333 -2 21 -4s9.83398 -4.5 12.501 -7.5s4 -6.83301 4 -11.5c0 -6.66699 -2.16699 -13.167 -6.5 -19.5s-11.5 -14.5 -21.5 -24.5l-362 -342l403 -480c8 -10 13.667 -17.667 17 -23s5 -10.666 5 -15.999c0 -4.66699 -1 -8.66699 -3 -12s-5.33301 -6.16602 -10 -8.49902
s-11 -4.16602 -19 -5.49902s-18.333 -2 -31 -2c-13.333 0 -24.333 0.5 -33 1.5s-16.167 2.5 -22.5 4.5s-11.666 4.66699 -15.999 8s-8.5 7.33301 -12.5 12l-424 514v-514c0 -4 -1 -7.66699 -3 -11s-5.16699 -6 -9.5 -8s-10.333 -3.66699 -18 -5s-17.167 -2 -28.5 -2
c-12 0 -21.833 0.666992 -29.5 2s-13.667 3 -18 5s-7.5 4.66699 -9.5 8s-3 7 -3 11v1256c-1.33301 -1.33301 -3 -2.16602 -5 -2.49902s-5 -0.5 -9 -0.5c-8 0 -21 2.16699 -39 6.5s-36.5 7.83301 -55.5 10.5s-37 4.66699 -54 6s-33.167 2 -48.5 2
c-47.333 0 -86.166 -4.83301 -116.499 -14.5s-54.166 -24.5 -71.499 -44.5s-29.166 -45.5 -35.499 -76.5s-9.5 -67.5 -9.5 -109.5v-107h205c4.66699 0 8.83398 -1 12.501 -3s6.83398 -5.16699 9.50098 -9.5s4.66699 -9.66602 6 -15.999s2 -13.833 2 -22.5
c0 -16.667 -2.66699 -29.167 -8 -37.5s-12.666 -12.5 -21.999 -12.5h-205v-825c0 -4 -1 -7.66699 -3 -11s-5.16699 -6 -9.5 -8s-10.5 -3.66699 -18.5 -5s-17.667 -2 -29 -2s-20.833 0.666992 -28.5 2s-13.834 3 -18.501 5s-7.83398 4.66699 -9.50098 8s-2.5 7 -2.5 11v825
h-136c-9.33301 0 -16.5 4.16699 -21.5 12.5s-7.5 20.833 -7.5 37.5c0 8.66699 0.666992 16.167 2 22.5s3.16602 11.666 5.49902 15.999s5.33301 7.5 9 9.5s7.83398 3 12.501 3h136v107c0 62.667 7 116 21 160s35.667 79.833 65 107.5s66.333 47.834 111 60.501
s97.667 19 159 19c17.333 0 34.833 -0.666992 52.5 -2s34.834 -3 51.501 -5s31.334 -4.16699 44.001 -6.5s22.667 -4.5 30 -6.5s13.333 -4.33301 18 -7s8.33398 -6.66699 11.001 -12c0 6.66699 1 12 3 16s5.16699 7.33301 9.5 10s10.333 4.5 18 5.5s17.5 1.5 29.5 1.5z" />
    <glyph glyph-name="f_f_k.liga" unicode="ffk" horiz-adv-x="2071" 
d="M2025 22c0 -4.66699 -1.00098 -8.6748 -3.00098 -12.0078s-5.33301 -6.16602 -10 -8.49902s-11 -4.16602 -19 -5.49902s-18.333 -2 -31 -2c-13.333 0 -24.333 0.5 -33 1.5s-16.167 2.5 -22.5 4.5s-11.666 4.66699 -15.999 8s-8.5 7.33301 -12.5 12l-424 514v-514
c0 -4 -1 -7.66699 -3 -11s-5.16699 -6 -9.5 -8s-10.333 -3.66699 -18 -5s-17.5 -2 -29.5 -2c-11.333 0 -20.833 0.666992 -28.5 2s-13.834 3 -18.501 5s-7.83398 4.66699 -9.50098 8s-2.5 7 -2.5 11v1256c-1.33301 -1.33301 -3 -2.16602 -5 -2.49902s-5 -0.5 -9 -0.5
c-8 0 -21 2.16699 -39 6.5s-36.5 7.83301 -55.5 10.5s-37 4.66699 -54 6s-33.167 2 -48.5 2c-47.333 0 -86.166 -4.83301 -116.499 -14.5s-54.166 -24.5 -71.499 -44.5s-29.333 -45.5 -36 -76.5s-10 -67.5 -10 -109.5v-107h206c4.66699 0 8.66699 -1 12 -3
s6.33301 -5.16699 9 -9.5s4.66699 -9.66602 6 -15.999s2 -13.833 2 -22.5c0 -16.667 -2.66699 -29.167 -8 -37.5s-12.333 -12.5 -21 -12.5h-206v-825c0 -4 -1 -7.66699 -3 -11s-5.16699 -6 -9.5 -8s-10.333 -3.66699 -18 -5s-17.167 -2 -28.5 -2
c-12 0 -21.833 0.666992 -29.5 2s-13.667 3 -18 5s-7.5 4.66699 -9.5 8s-3 7 -3 11v825h-444v-825c0 -4 -1 -7.66699 -3 -11s-5.16699 -6 -9.5 -8s-10.5 -3.66699 -18.5 -5s-17.667 -2 -29 -2s-20.833 0.666992 -28.5 2s-13.834 3 -18.501 5s-7.83398 4.66699 -9.50098 8
s-2.5 7 -2.5 11v825h-136c-9.33301 0 -16.5 4.16699 -21.5 12.5s-7.5 20.833 -7.5 37.5c0 8.66699 0.666992 16.167 2 22.5s3.16602 11.666 5.49902 15.999s5.33301 7.5 9 9.5s7.83398 3 12.501 3h136v96c0 62.667 5.83301 116 17.5 160s29 79.833 52 107.5
s51.5 47.834 85.5 60.501s73 19 117 19c29.333 0 54.666 -2.66699 75.999 -8s36.5 -10 45.5 -14s15.333 -7.83301 19 -11.5s6.66699 -8.16699 9 -13.5s4 -11.5 5 -18.5s1.5 -14.833 1.5 -23.5c0 -15.333 -1.5 -26.666 -4.5 -33.999s-8.16699 -11 -15.5 -11
c-5.33301 0 -12 1.66699 -20 5s-17.833 7 -29.5 11s-25 7.66699 -40 11s-31.833 5 -50.5 5c-55.333 0 -94 -19.5 -116 -58.5s-33 -101.167 -33 -186.5v-96h444v107c0 62.667 7.16699 116 21.5 160s36 79.833 65 107.5s65.833 47.834 110.5 60.501s97.667 19 159 19
c18 0 35.833 -0.666992 53.5 -2s34.834 -3 51.501 -5s31.334 -4.16699 44.001 -6.5s22.667 -4.5 30 -6.5s13.333 -4.33301 18 -7s8.33398 -6.66699 11.001 -12c0 6.66699 1 12 3 16s5.16699 7.33301 9.5 10s10.333 4.5 18 5.5s17.167 1.5 28.5 1.5
c12 0 21.833 -0.5 29.5 -1.5s13.667 -2.66699 18 -5s7.5 -5.16602 9.5 -8.49902s3 -7 3 -11v-832l381 385c5.33301 6 10.833 10.833 16.5 14.5s11.834 6.66699 18.501 9s14.334 4 23.001 5s18.667 1.5 30 1.5s21.166 -0.333008 29.499 -1s15.166 -2 20.499 -4
s9.33301 -4.5 12 -7.5s4 -6.83301 4 -11.5c0 -6.66699 -2 -13.167 -6 -19.5s-11 -14.5 -21 -24.5l-362 -342l402 -480c8.66699 -10 14.667 -17.667 18 -23s5 -10.666 5 -15.999z" />
    <glyph glyph-name="f_lacute.liga" unicode="f&#x13a;" horiz-adv-x="1057" 
d="M890 20c0 -4 -1.00684 -7.66992 -3.00684 -11.0029s-5.16699 -6 -9.5 -8s-10.333 -3.66699 -18 -5s-17.167 -2 -28.5 -2c-12 0 -21.833 0.666992 -29.5 2s-13.667 3 -18 5s-7.5 4.66699 -9.5 8s-3 7 -3 11v1256c-1.33301 -1.33301 -3 -2.16602 -5 -2.49902
s-5 -0.5 -9 -0.5c-8 0 -21 2.16699 -39 6.5s-36.5 7.83301 -55.5 10.5s-37 4.66699 -54 6s-33.167 2 -48.5 2c-47.333 0 -86.166 -4.83301 -116.499 -14.5s-54.166 -24.5 -71.499 -44.5s-29.166 -45.5 -35.499 -76.5s-9.5 -67.5 -9.5 -109.5v-107h205
c4.66699 0 8.83398 -1 12.501 -3s6.83398 -5.16699 9.50098 -9.5s4.66699 -9.66602 6 -15.999s2 -13.833 2 -22.5c0 -16.667 -2.66699 -29.167 -8 -37.5s-12.666 -12.5 -21.999 -12.5h-205v-825c0 -4 -1 -7.66699 -3 -11s-5.16699 -6 -9.5 -8s-10.333 -3.66699 -18 -5
s-17.5 -2 -29.5 -2c-11.333 0 -20.833 0.666992 -28.5 2s-13.834 3 -18.501 5s-7.83398 4.66699 -9.50098 8s-2.5 7 -2.5 11v825h-136c-9.33301 0 -16.5 4.16699 -21.5 12.5s-7.5 20.833 -7.5 37.5c0 8.66699 0.666992 16.167 2 22.5s3.16602 11.666 5.49902 15.999
s5.33301 7.5 9 9.5s7.83398 3 12.501 3h136v107c0 62.667 7 116 21 160s35.667 79.833 65 107.5s66.333 47.834 111 60.501s97.667 19 159 19c17.333 0 34.833 -0.666992 52.5 -2s34.834 -3 51.501 -5s31.334 -4.16699 44.001 -6.5s22.667 -4.5 30 -6.5
s13.333 -4.33301 18 -7s8.33398 -6.66699 11.001 -12c0 6.66699 1 12 3 16s5.16699 7.33301 9.5 10s10.333 4.5 18 5.5s17.5 1.5 29.5 1.5c11.333 0 20.833 -0.5 28.5 -1.5s13.667 -2.66699 18 -5s7.5 -5.16602 9.5 -8.49902s3 -7 3 -11v-1348zM992.993 1726
c6.66699 7.33301 13.168 13.1689 19.501 17.502s13.166 7.66602 20.499 9.99902s15.666 3.83301 24.999 4.5s20 1 32 1c14 0 25.333 -1.16699 34 -3.5s14.834 -5.33301 18.501 -9s5 -8 4 -13s-3.83301 -10.167 -8.5 -15.5l-228 -219
c-6.66699 -6.66699 -12.667 -11.834 -18 -15.501s-11 -6.5 -17 -8.5s-12.5 -3.33301 -19.5 -4s-15.5 -1 -25.5 -1c-11.333 0 -20.166 0.833008 -26.499 2.5s-10.5 4 -12.5 7s-2.33301 6.83301 -1 11.5s4.66602 10 9.99902 16zM640.994 1364z" />
    <glyph glyph-name="f_lcaron.liga" unicode="f&#x13e;" horiz-adv-x="1098" 
d="M890 20c0 -4 -1.00684 -7.66992 -3.00684 -11.0029s-5.16699 -6 -9.5 -8s-10.333 -3.66699 -18 -5s-17.167 -2 -28.5 -2c-12 0 -21.833 0.666992 -29.5 2s-13.667 3 -18 5s-7.5 4.66699 -9.5 8s-3 7 -3 11v1256c-1.33301 -1.33301 -3 -2.16602 -5 -2.49902
s-5 -0.5 -9 -0.5c-8 0 -21 2.16699 -39 6.5s-36.5 7.83301 -55.5 10.5s-37 4.66699 -54 6s-33.167 2 -48.5 2c-47.333 0 -86.166 -4.83301 -116.499 -14.5s-54.166 -24.5 -71.499 -44.5s-29.166 -45.5 -35.499 -76.5s-9.5 -67.5 -9.5 -109.5v-107h205
c4.66699 0 8.83398 -1 12.501 -3s6.83398 -5.16699 9.50098 -9.5s4.66699 -9.66602 6 -15.999s2 -13.833 2 -22.5c0 -16.667 -2.66699 -29.167 -8 -37.5s-12.666 -12.5 -21.999 -12.5h-205v-825c0 -4 -1 -7.66699 -3 -11s-5.16699 -6 -9.5 -8s-10.333 -3.66699 -18 -5
s-17.5 -2 -29.5 -2c-11.333 0 -20.833 0.666992 -28.5 2s-13.834 3 -18.501 5s-7.83398 4.66699 -9.50098 8s-2.5 7 -2.5 11v825h-136c-9.33301 0 -16.5 4.16699 -21.5 12.5s-7.5 20.833 -7.5 37.5c0 8.66699 0.666992 16.167 2 22.5s3.16602 11.666 5.49902 15.999
s5.33301 7.5 9 9.5s7.83398 3 12.501 3h136v107c0 62.667 7 116 21 160s35.667 79.833 65 107.5s66.333 47.834 111 60.501s97.667 19 159 19c17.333 0 34.833 -0.666992 52.5 -2s34.834 -3 51.501 -5s31.334 -4.16699 44.001 -6.5s22.667 -4.5 30 -6.5
s13.333 -4.33301 18 -7s8.33398 -6.66699 11.001 -12c0 6.66699 1 12 3 16s5.16699 7.33301 9.5 10s10.333 4.5 18 5.5s17.5 1.5 29.5 1.5c11.333 0 20.833 -0.5 28.5 -1.5s13.667 -2.66699 18 -5s7.5 -5.16602 9.5 -8.49902s3 -7 3 -11v-1348zM1065.99 1365
c2 6 4.66699 11 8 15s7.66602 7 12.999 9s12.333 3.5 21 4.5s19 1.5 31 1.5c10 0 17.833 -0.5 23.5 -1.5s9.83398 -2.66699 12.501 -5s4.16699 -5.5 4.5 -9.5s-0.166992 -8.66699 -1.5 -14l-125 -312c-0.666992 -2.66699 -2 -5 -4 -7s-5.16699 -3.66699 -9.5 -5
s-10 -2.33301 -17 -3s-15.833 -1 -26.5 -1c-7.33301 0 -13.166 0.5 -17.499 1.5s-7.5 2.5 -9.5 4.5s-3.33301 4.33301 -4 7s-0.333984 5.66699 0.999023 9zM815.993 1002z" />
    <glyph glyph-name="f_lcommaaccent.liga" unicode="f&#x13c;" horiz-adv-x="1057" 
d="M890 20c0 -4 -1.00684 -7.66992 -3.00684 -11.0029s-5.16699 -6 -9.5 -8s-10.333 -3.66699 -18 -5s-17.167 -2 -28.5 -2c-12 0 -21.833 0.666992 -29.5 2s-13.667 3 -18 5s-7.5 4.66699 -9.5 8s-3 7 -3 11v1256c-1.33301 -1.33301 -3 -2.16602 -5 -2.49902
s-5 -0.5 -9 -0.5c-8 0 -21 2.16699 -39 6.5s-36.5 7.83301 -55.5 10.5s-37 4.66699 -54 6s-33.167 2 -48.5 2c-47.333 0 -86.166 -4.83301 -116.499 -14.5s-54.166 -24.5 -71.499 -44.5s-29.166 -45.5 -35.499 -76.5s-9.5 -67.5 -9.5 -109.5v-107h205
c4.66699 0 8.83398 -1 12.501 -3s6.83398 -5.16699 9.50098 -9.5s4.66699 -9.66602 6 -15.999s2 -13.833 2 -22.5c0 -16.667 -2.66699 -29.167 -8 -37.5s-12.666 -12.5 -21.999 -12.5h-205v-825c0 -4 -1 -7.66699 -3 -11s-5.16699 -6 -9.5 -8s-10.333 -3.66699 -18 -5
s-17.5 -2 -29.5 -2c-11.333 0 -20.833 0.666992 -28.5 2s-13.834 3 -18.501 5s-7.83398 4.66699 -9.50098 8s-2.5 7 -2.5 11v825h-136c-9.33301 0 -16.5 4.16699 -21.5 12.5s-7.5 20.833 -7.5 37.5c0 8.66699 0.666992 16.167 2 22.5s3.16602 11.666 5.49902 15.999
s5.33301 7.5 9 9.5s7.83398 3 12.501 3h136v107c0 62.667 7 116 21 160s35.667 79.833 65 107.5s66.333 47.834 111 60.501s97.667 19 159 19c17.333 0 34.833 -0.666992 52.5 -2s34.834 -3 51.501 -5s31.334 -4.16699 44.001 -6.5s22.667 -4.5 30 -6.5
s13.333 -4.33301 18 -7s8.33398 -6.66699 11.001 -12c0 6.66699 1 12 3 16s5.16699 7.33301 9.5 10s10.333 4.5 18 5.5s17.5 1.5 29.5 1.5c11.333 0 20.833 -0.5 28.5 -1.5s13.667 -2.66699 18 -5s7.5 -5.16602 9.5 -8.49902s3 -7 3 -11v-1348zM761.993 -132.003
c4.66699 14 12.001 23.167 22.001 27.5s28 6.5 54 6.5c25.333 0 40.166 -4 44.499 -12s3.83301 -17.667 -1.5 -29l-95 -197c-6 -12.667 -13.5 -20.667 -22.5 -24s-23.5 -5 -43.5 -5c-18 0 -28.333 2.83301 -31 8.5s-1.66699 15.167 3 28.5z" />
    <glyph glyph-name="f_t.liga" unicode="ft" horiz-adv-x="1238" 
d="M327 845l-0.000976562 -824.998c0 -4 -1 -7.66699 -3 -11s-5.16699 -6 -9.5 -8s-10.5 -3.66699 -18.5 -5s-17.667 -2 -29 -2s-20.833 0.666992 -28.5 2s-13.834 3 -18.501 5s-7.83398 4.66699 -9.50098 8s-2.5 7 -2.5 11v825h-136c-9.33301 0 -16.5 4.16699 -21.5 12.5
s-7.5 20.833 -7.5 37.5c0 8.66699 0.666992 16.167 2 22.5s3.16602 11.666 5.49902 15.999s5.33301 7.5 9 9.5s7.83398 3 12.501 3h136v103c0 63.333 5.66699 117.333 17 162s28.5 81 51.5 109s51.833 48.333 86.5 61s75 19 121 19c24 0 47.167 -2.5 69.5 -7.5
s38.166 -9.66699 47.499 -14s15.833 -8.33301 19.5 -12s6.66699 -8.16699 9 -13.5s4 -11.5 5 -18.5s1.5 -14.833 1.5 -23.5c0 -9.33301 -0.5 -16.833 -1.5 -22.5s-2.33301 -10.167 -4 -13.5s-3.66699 -5.66602 -6 -6.99902s-5.16602 -2 -8.49902 -2
c-5.33301 0 -11.666 1.66699 -18.999 5s-16.5 7 -27.5 11s-24 7.66699 -39 11s-32.5 5 -52.5 5c-28 0 -51.667 -4.5 -71 -13.5s-34.833 -23.333 -46.5 -43s-20.167 -45 -25.5 -76s-8 -68.5 -8 -112.5v-107h442v222c0 4 1 7.66699 3 11s5.16699 6.16602 9.5 8.49902
s10.333 4 18 5s17.5 1.5 29.5 1.5c11.333 0 20.833 -0.5 28.5 -1.5s13.667 -2.66699 18 -5s7.5 -5.16602 9.5 -8.49902s3 -7 3 -11v-222h250c4.66699 0 8.83398 -1 12.501 -3s6.83398 -5.16699 9.50098 -9.5s4.66699 -9.66602 6 -15.999s2 -13.833 2 -22.5
c0 -16.667 -2.66699 -29.167 -8 -37.5s-12.666 -12.5 -21.999 -12.5h-250v-547c0 -68.667 9.83301 -121 29.5 -157s55.5 -54 107.5 -54c16 0 30.5 1.66699 43.5 5s24.5 7 34.5 11s18.667 7.66699 26 11s13.666 5 18.999 5c3.33301 0 6.16602 -0.666992 8.49902 -2
s4.33301 -3.83301 6 -7.5s3 -8.33398 4 -14.001s1.5 -12.834 1.5 -21.501c0 -14 -1.16699 -25.333 -3.5 -34s-6 -15.5 -11 -20.5s-12.167 -9.66699 -21.5 -14s-20.333 -8 -33 -11s-26 -5.33301 -40 -7s-27.667 -2.5 -41 -2.5c-45.333 0 -83.666 6 -114.999 18
s-57 30.167 -77 54.5s-34.5 55.166 -43.5 92.499s-13.5 81.333 -13.5 132v563h-442z" />
    <glyph glyph-name="f_uni021B.liga" unicode="f&#x21b;" horiz-adv-x="1238" 
d="M327 845l-0.000976562 -824.998c0 -4 -1 -7.66699 -3 -11s-5.16699 -6 -9.5 -8s-10.5 -3.66699 -18.5 -5s-17.667 -2 -29 -2s-20.833 0.666992 -28.5 2s-13.834 3 -18.501 5s-7.83398 4.66699 -9.50098 8s-2.5 7 -2.5 11v825h-136c-9.33301 0 -16.5 4.16699 -21.5 12.5
s-7.5 20.833 -7.5 37.5c0 8.66699 0.666992 16.167 2 22.5s3.16602 11.666 5.49902 15.999s5.33301 7.5 9 9.5s7.83398 3 12.501 3h136v103c0 63.333 5.66699 117.333 17 162s28.5 81 51.5 109s51.833 48.333 86.5 61s75 19 121 19c24 0 47.167 -2.5 69.5 -7.5
s38.166 -9.66699 47.499 -14s15.833 -8.33301 19.5 -12s6.66699 -8.16699 9 -13.5s4 -11.5 5 -18.5s1.5 -14.833 1.5 -23.5c0 -9.33301 -0.5 -16.833 -1.5 -22.5s-2.33301 -10.167 -4 -13.5s-3.66699 -5.66602 -6 -6.99902s-5.16602 -2 -8.49902 -2
c-5.33301 0 -11.666 1.66699 -18.999 5s-16.5 7 -27.5 11s-24 7.66699 -39 11s-32.5 5 -52.5 5c-28 0 -51.667 -4.5 -71 -13.5s-34.833 -23.333 -46.5 -43s-20.167 -45 -25.5 -76s-8 -68.5 -8 -112.5v-107h442v222c0 4 1 7.66699 3 11s5.16699 6.16602 9.5 8.49902
s10.333 4 18 5s17.5 1.5 29.5 1.5c11.333 0 20.833 -0.5 28.5 -1.5s13.667 -2.66699 18 -5s7.5 -5.16602 9.5 -8.49902s3 -7 3 -11v-222h250c4.66699 0 8.83398 -1 12.501 -3s6.83398 -5.16699 9.50098 -9.5s4.66699 -9.66602 6 -15.999s2 -13.833 2 -22.5
c0 -16.667 -2.66699 -29.167 -8 -37.5s-12.666 -12.5 -21.999 -12.5h-250v-547c0 -68.667 9.83301 -121 29.5 -157s55.5 -54 107.5 -54c16 0 30.5 1.66699 43.5 5s24.5 7 34.5 11s18.667 7.66699 26 11s13.666 5 18.999 5c3.33301 0 6.16602 -0.666992 8.49902 -2
s4.33301 -3.83301 6 -7.5s3 -8.33398 4 -14.001s1.5 -12.834 1.5 -21.501c0 -14 -1.16699 -25.333 -3.5 -34s-6 -15.5 -11 -20.5s-12.167 -9.66699 -21.5 -14s-20.333 -8 -33 -11s-26 -5.33301 -40 -7s-27.667 -2.5 -41 -2.5c-45.333 0 -83.666 6 -114.999 18
s-57 30.167 -77 54.5s-34.5 55.166 -43.5 92.499s-13.5 81.333 -13.5 132v563h-442zM907.999 -131.998c4.66699 14 12.001 23.167 22.001 27.5s28 6.5 54 6.5c25.333 0 40.166 -4 44.499 -12s3.83301 -17.667 -1.5 -29l-95 -197c-6 -12.667 -13.5 -20.667 -22.5 -24
s-23.5 -5 -43.5 -5c-18 0 -28.333 2.83301 -31 8.5s-1.66699 15.167 3 28.5z" />
    <glyph glyph-name="f_tcaron.liga" unicode="f&#x165;" horiz-adv-x="1272" 
d="M327 845l-0.000976562 -824.998c0 -4 -1 -7.66699 -3 -11s-5.16699 -6 -9.5 -8s-10.5 -3.66699 -18.5 -5s-17.667 -2 -29 -2s-20.833 0.666992 -28.5 2s-13.834 3 -18.501 5s-7.83398 4.66699 -9.50098 8s-2.5 7 -2.5 11v825h-136c-9.33301 0 -16.5 4.16699 -21.5 12.5
s-7.5 20.833 -7.5 37.5c0 8.66699 0.666992 16.167 2 22.5s3.16602 11.666 5.49902 15.999s5.33301 7.5 9 9.5s7.83398 3 12.501 3h136v103c0 63.333 5.66699 117.333 17 162s28.5 81 51.5 109s51.833 48.333 86.5 61s75 19 121 19c24 0 47.167 -2.5 69.5 -7.5
s38.166 -9.66699 47.499 -14s15.833 -8.33301 19.5 -12s6.66699 -8.16699 9 -13.5s4 -11.5 5 -18.5s1.5 -14.833 1.5 -23.5c0 -9.33301 -0.5 -16.833 -1.5 -22.5s-2.33301 -10.167 -4 -13.5s-3.66699 -5.66602 -6 -6.99902s-5.16602 -2 -8.49902 -2
c-5.33301 0 -11.666 1.66699 -18.999 5s-16.5 7 -27.5 11s-24 7.66699 -39 11s-32.5 5 -52.5 5c-28 0 -51.667 -4.5 -71 -13.5s-34.833 -23.333 -46.5 -43s-20.167 -45 -25.5 -76s-8 -68.5 -8 -112.5v-107h442v222c0 4 1 7.66699 3 11s5.16699 6.16602 9.5 8.49902
s10.333 4 18 5s17.5 1.5 29.5 1.5c11.333 0 20.833 -0.5 28.5 -1.5s13.667 -2.66699 18 -5s7.5 -5.16602 9.5 -8.49902s3 -7 3 -11v-222h250c4.66699 0 8.83398 -1 12.501 -3s6.83398 -5.16699 9.50098 -9.5s4.66699 -9.66602 6 -15.999s2 -13.833 2 -22.5
c0 -16.667 -2.66699 -29.167 -8 -37.5s-12.666 -12.5 -21.999 -12.5h-250v-547c0 -68.667 9.83301 -121 29.5 -157s55.5 -54 107.5 -54c16 0 30.5 1.66699 43.5 5s24.5 7 34.5 11s18.667 7.66699 26 11s13.666 5 18.999 5c3.33301 0 6.16602 -0.666992 8.49902 -2
s4.33301 -3.83301 6 -7.5s3 -8.33398 4 -14.001s1.5 -12.834 1.5 -21.501c0 -14 -1.16699 -25.333 -3.5 -34s-6 -15.5 -11 -20.5s-12.167 -9.66699 -21.5 -14s-20.333 -8 -33 -11s-26 -5.33301 -40 -7s-27.667 -2.5 -41 -2.5c-45.333 0 -83.666 6 -114.999 18
s-57 30.167 -77 54.5s-34.5 55.166 -43.5 92.499s-13.5 81.333 -13.5 132v563h-442zM1127 1420c2 6 4.66699 11 8 15s7.66602 7 12.999 9s12.333 3.5 21 4.5s19 1.5 31 1.5c10 0 17.833 -0.5 23.5 -1.5s9.83398 -2.66699 12.501 -5s4.16699 -5.5 4.5 -9.5
s-0.166992 -8.66699 -1.5 -14l-125 -312c-0.666992 -2.66699 -2 -5 -4 -7s-5.16699 -3.66699 -9.5 -5s-10 -2.33301 -17 -3s-15.833 -1 -26.5 -1c-7.33301 0 -13.166 0.5 -17.499 1.5s-7.5 2.5 -9.5 4.5s-3.33301 4.33301 -4 7s-0.333984 5.66699 0.999023 9zM876.999 1057z
" />
    <glyph glyph-name="f_f_t.liga" unicode="fft" horiz-adv-x="1802" 
d="M1732 74c0 -14 -1.17188 -25.3301 -3.50488 -33.9971s-6 -15.5 -11 -20.5s-12.333 -9.66699 -22 -14s-20.834 -8 -33.501 -11s-26 -5.33301 -40 -7s-27.667 -2.5 -41 -2.5c-44.667 0 -82.667 6 -114 18s-57 30.167 -77 54.5s-34.5 55.166 -43.5 92.499
s-13.5 81.333 -13.5 132v563h-443v-825c0 -4 -1 -7.66699 -3 -11s-5.16699 -6 -9.5 -8s-10.333 -3.66699 -18 -5s-17.167 -2 -28.5 -2c-12 0 -21.833 0.666992 -29.5 2s-13.667 3 -18 5s-7.5 4.66699 -9.5 8s-3 7 -3 11v825h-444v-825c0 -4 -1 -7.66699 -3 -11
s-5.16699 -6 -9.5 -8s-10.5 -3.66699 -18.5 -5s-17.667 -2 -29 -2s-20.833 0.666992 -28.5 2s-13.834 3 -18.501 5s-7.83398 4.66699 -9.50098 8s-2.5 7 -2.5 11v825h-136c-9.33301 0 -16.5 4.16699 -21.5 12.5s-7.5 20.833 -7.5 37.5c0 8.66699 0.666992 16.167 2 22.5
s3.16602 11.666 5.49902 15.999s5.33301 7.5 9 9.5s7.83398 3 12.501 3h136v92c0 63.333 5.66699 117.333 17 162s28.5 81 51.5 109s51.833 48.333 86.5 61s75 19 121 19c25.333 0 49 -2.66699 71 -8s37.5 -10 46.5 -14s15.333 -7.83301 19 -11.5s6.66699 -8.16699 9 -13.5
s4 -11.5 5 -18.5s1.5 -14.833 1.5 -23.5c0 -9.33301 -0.5 -16.833 -1.5 -22.5s-2.33301 -10.167 -4 -13.5s-3.66699 -5.66602 -6 -6.99902s-5.16602 -2 -8.49902 -2c-5.33301 0 -11.666 1.66699 -18.999 5s-16.5 7 -27.5 11s-24 7.66699 -39 11s-32.5 5 -52.5 5
c-28 0 -51.667 -4.5 -71 -13.5s-35 -23.333 -47 -43s-20.5 -45 -25.5 -76s-7.5 -68.5 -7.5 -112.5v-96h444v103c0 63.333 5.83301 117.333 17.5 162s29 81 52 109s51.833 48.333 86.5 61s75 19 121 19c22.667 0 44.667 -2.33301 66 -7s37.333 -9.33398 48 -14.001
s18 -8.83398 22 -12.501s7.16699 -8.16699 9.5 -13.5s4 -11.5 5 -18.5s1.5 -14.833 1.5 -23.5c0 -9.33301 -0.5 -16.833 -1.5 -22.5s-2.33301 -10.167 -4 -13.5s-3.83398 -5.66602 -6.50098 -6.99902s-5.66699 -2 -9 -2c-5.33301 0 -11.666 1.66699 -18.999 5
s-16.333 7 -27 11s-23.5 7.66699 -38.5 11s-32.5 5 -52.5 5c-28 0 -51.667 -4.5 -71 -13.5s-35 -23.333 -47 -43s-20.667 -45 -26 -76s-8 -68.5 -8 -112.5v-107h443v222c0 4 0.833008 7.66699 2.5 11s4.83398 6.16602 9.50098 8.49902s10.834 4 18.501 5
s17.167 1.5 28.5 1.5c12 0 21.833 -0.5 29.5 -1.5s13.667 -2.66699 18 -5s7.5 -5.16602 9.5 -8.49902s3 -7 3 -11v-222h250c4.66699 0 8.83398 -1 12.501 -3s6.83398 -5.16699 9.50098 -9.5s4.66699 -9.66602 6 -15.999s2 -13.833 2 -22.5
c0 -16.667 -2.66699 -29.167 -8 -37.5s-12.666 -12.5 -21.999 -12.5h-250v-547c0 -68.667 9.83301 -121 29.5 -157s55.5 -54 107.5 -54c16 0 30.5 1.66699 43.5 5s24.5 7 34.5 11s18.5 7.66699 25.5 11s13.167 5 18.5 5c3.33301 0 6.33301 -0.666992 9 -2
s4.83398 -3.83301 6.50098 -7.5s3 -8.33398 4 -14.001s1.5 -12.834 1.5 -21.501z" />
    <glyph glyph-name="t_f.liga" unicode="tf" horiz-adv-x="1231" 
d="M827 946l-0.00683594 103.002c0 63.333 5.83301 117.333 17.5 162s29 81 52 109s51.667 48.333 86 61s74.5 19 120.5 19c21.333 0 42.833 -2.16699 64.5 -6.5s38.167 -9 49.5 -14s18.833 -9.33301 22.5 -13s6.66699 -8.16699 9 -13.5s4 -11.5 5 -18.5
s1.5 -14.833 1.5 -23.5c0 -9.33301 -0.5 -16.833 -1.5 -22.5s-2.33301 -10.167 -4 -13.5s-3.66699 -5.66602 -6 -6.99902s-5.16602 -2 -8.49902 -2c-5.33301 0 -15.833 3.33301 -31.5 10s-32.167 12 -49.5 16s-36 6 -56 6c-28 0 -51.667 -4.5 -71 -13.5s-35 -23.333 -47 -43
s-20.667 -45 -26 -76s-8 -68.5 -8 -112.5v-107h222c4.66699 0 8.83398 -1 12.501 -3s6.83398 -5.16699 9.50098 -9.5s4.66699 -9.66602 6 -15.999s2 -13.833 2 -22.5c0 -16.667 -2.66699 -29.167 -8 -37.5s-12.666 -12.5 -21.999 -12.5h-222v-825c0 -4 -1 -7.66699 -3 -11
s-5.16699 -6 -9.5 -8s-10.333 -3.66699 -18 -5s-17.5 -2 -29.5 -2c-11.333 0 -20.833 0.666992 -28.5 2s-13.834 3 -18.501 5s-7.83398 4.66699 -9.50098 8s-2.5 7 -2.5 11v825h-504v-547c0 -68.667 9.83301 -121 29.5 -157s55.5 -54 107.5 -54c16 0 30.5 1.66699 43.5 5
s24.5 7 34.5 11s18.5 7.66699 25.5 11s13.167 5 18.5 5c3.33301 0 6.33301 -0.666992 9 -2s4.83398 -3.83301 6.50098 -7.5s3 -8.33398 4 -14.001s1.5 -12.834 1.5 -21.501c0 -14 -1.16699 -25.333 -3.5 -34s-6 -15.5 -11 -20.5s-12.333 -9.66699 -22 -14
s-20.834 -8 -33.501 -11s-26 -5.33301 -40 -7s-27.667 -2.5 -41 -2.5c-44.667 0 -82.667 6 -114 18s-57 30.167 -77 54.5s-34.5 55.166 -43.5 92.499s-13.5 81.333 -13.5 132v563h-135c-9.33301 0 -16.666 4.16699 -21.999 12.5s-8 20.833 -8 37.5
c0 8.66699 0.666992 16.167 2 22.5s3.33301 11.666 6 15.999s5.83398 7.5 9.50098 9.5s7.83398 3 12.501 3h135v222c0 4 0.833008 7.66699 2.5 11s4.83398 6.16602 9.50098 8.49902s10.834 4 18.501 5s17.167 1.5 28.5 1.5c12 0 21.833 -0.5 29.5 -1.5
s13.667 -2.66699 18 -5s7.5 -5.16602 9.5 -8.49902s3 -7 3 -11v-222h504z" />
    <glyph glyph-name="t_i.liga" unicode="ti" horiz-adv-x="1109" 
d="M903 946c15.333 0 25.6621 -3.8291 30.9951 -11.4961s8 -18.167 8 -31.5v-883c0 -4 -1 -7.66699 -3 -11s-5.16699 -6 -9.5 -8s-10.333 -3.66699 -18 -5s-17.167 -2 -28.5 -2c-12 0 -21.833 0.666992 -29.5 2s-13.667 3 -18 5s-7.5 4.66699 -9.5 8s-3 7 -3 11v825h-500
v-547c0 -68.667 9.83301 -121 29.5 -157s55.5 -54 107.5 -54c16 0 30.5 1.66699 43.5 5s24.5 7 34.5 11s18.5 7.66699 25.5 11s13.167 5 18.5 5c3.33301 0 6.33301 -0.666992 9 -2s4.83398 -3.83301 6.50098 -7.5s3 -8.33398 4 -14.001s1.5 -12.834 1.5 -21.501
c0 -14 -1.16699 -25.333 -3.5 -34s-6 -15.5 -11 -20.5s-12.333 -9.66699 -22 -14s-20.834 -8 -33.501 -11s-26 -5.33301 -40 -7s-27.667 -2.5 -41 -2.5c-44.667 0 -82.667 6 -114 18s-57 30.167 -77 54.5s-34.5 55.166 -43.5 92.499s-13.5 81.333 -13.5 132v563h-135
c-9.33301 0 -16.666 4.16699 -21.999 12.5s-8 20.833 -8 37.5c0 8.66699 0.666992 16.167 2 22.5s3.33301 11.666 6 15.999s5.83398 7.5 9.50098 9.5s7.83398 3 12.501 3h135v222c0 4 0.833008 7.66699 2.5 11s4.83398 6.16602 9.50098 8.49902s10.834 4 18.501 5
s17.167 1.5 28.5 1.5c12 0 21.833 -0.5 29.5 -1.5s13.667 -2.66699 18 -5s7.5 -5.16602 9.5 -8.49902s3 -7 3 -11v-222h580zM959.996 1230c0 -32 -5.66699 -53.667 -17 -65s-32 -17 -62 -17c-29.333 0 -49.5 5.5 -60.5 16.5s-16.5 32.5 -16.5 64.5s5.66699 53.667 17 65
s32 17 62 17c29.333 0 49.5 -5.5 60.5 -16.5s16.5 -32.5 16.5 -64.5zM655.996 946.004z" />
    <glyph glyph-name="t_igrave.liga" unicode="t&#xec;" horiz-adv-x="1109" 
d="M903 946c15.333 0 25.6621 -3.8291 30.9951 -11.4961s8 -18.167 8 -31.5v-883c0 -4 -1 -7.66699 -3 -11s-5.16699 -6 -9.5 -8s-10.333 -3.66699 -18 -5s-17.167 -2 -28.5 -2c-12 0 -21.833 0.666992 -29.5 2s-13.667 3 -18 5s-7.5 4.66699 -9.5 8s-3 7 -3 11v825h-500
v-547c0 -68.667 9.83301 -121 29.5 -157s55.5 -54 107.5 -54c16 0 30.5 1.66699 43.5 5s24.5 7 34.5 11s18.5 7.66699 25.5 11s13.167 5 18.5 5c3.33301 0 6.33301 -0.666992 9 -2s4.83398 -3.83301 6.50098 -7.5s3 -8.33398 4 -14.001s1.5 -12.834 1.5 -21.501
c0 -14 -1.16699 -25.333 -3.5 -34s-6 -15.5 -11 -20.5s-12.333 -9.66699 -22 -14s-20.834 -8 -33.501 -11s-26 -5.33301 -40 -7s-27.667 -2.5 -41 -2.5c-44.667 0 -82.667 6 -114 18s-57 30.167 -77 54.5s-34.5 55.166 -43.5 92.499s-13.5 81.333 -13.5 132v563h-135
c-9.33301 0 -16.666 4.16699 -21.999 12.5s-8 20.833 -8 37.5c0 8.66699 0.666992 16.167 2 22.5s3.33301 11.666 6 15.999s5.83398 7.5 9.50098 9.5s7.83398 3 12.501 3h135v222c0 4 0.833008 7.66699 2.5 11s4.83398 6.16602 9.50098 8.49902s10.834 4 18.501 5
s17.167 1.5 28.5 1.5c12 0 21.833 -0.5 29.5 -1.5s13.667 -2.66699 18 -5s7.5 -5.16602 9.5 -8.49902s3 -7 3 -11v-222h580zM918.996 1133c4 -6 6.5 -11.333 7.5 -16s0.333008 -8.5 -2 -11.5s-6.5 -5.33301 -12.5 -7s-14 -2.5 -24 -2.5s-18.333 0.333008 -25 1
s-12.5 2 -17.5 4s-9.5 4.83301 -13.5 8.5s-8.33301 8.83398 -13 15.501l-174 234c-4.66699 6 -7.33398 11.5 -8.00098 16.5s0.666016 9.33301 3.99902 13s9 6.5 17 8.5s18.333 3 31 3s23.334 -0.5 32.001 -1.5s16 -2.66699 22 -5s11.333 -5.83301 16 -10.5
s9.33398 -10.334 14.001 -17.001z" />
    <glyph glyph-name="t_iacute.liga" unicode="t&#xed;" horiz-adv-x="1109" 
d="M903 946c15.333 0 25.6621 -3.8291 30.9951 -11.4961s8 -18.167 8 -31.5v-883c0 -4 -1 -7.66699 -3 -11s-5.16699 -6 -9.5 -8s-10.333 -3.66699 -18 -5s-17.167 -2 -28.5 -2c-12 0 -21.833 0.666992 -29.5 2s-13.667 3 -18 5s-7.5 4.66699 -9.5 8s-3 7 -3 11v825h-500
v-547c0 -68.667 9.83301 -121 29.5 -157s55.5 -54 107.5 -54c16 0 30.5 1.66699 43.5 5s24.5 7 34.5 11s18.5 7.66699 25.5 11s13.167 5 18.5 5c3.33301 0 6.33301 -0.666992 9 -2s4.83398 -3.83301 6.50098 -7.5s3 -8.33398 4 -14.001s1.5 -12.834 1.5 -21.501
c0 -14 -1.16699 -25.333 -3.5 -34s-6 -15.5 -11 -20.5s-12.333 -9.66699 -22 -14s-20.834 -8 -33.501 -11s-26 -5.33301 -40 -7s-27.667 -2.5 -41 -2.5c-44.667 0 -82.667 6 -114 18s-57 30.167 -77 54.5s-34.5 55.166 -43.5 92.499s-13.5 81.333 -13.5 132v563h-135
c-9.33301 0 -16.666 4.16699 -21.999 12.5s-8 20.833 -8 37.5c0 8.66699 0.666992 16.167 2 22.5s3.33301 11.666 6 15.999s5.83398 7.5 9.50098 9.5s7.83398 3 12.501 3h135v222c0 4 0.833008 7.66699 2.5 11s4.83398 6.16602 9.50098 8.49902s10.834 4 18.501 5
s17.167 1.5 28.5 1.5c12 0 21.833 -0.5 29.5 -1.5s13.667 -2.66699 18 -5s7.5 -5.16602 9.5 -8.49902s3 -7 3 -11v-222h580zM972.996 1366c4 6.66699 8.33398 12.334 13.001 17.001s10.167 8.16699 16.5 10.5s14 4 23 5s19.833 1.5 32.5 1.5s23 -1 31 -3
s13.667 -4.83301 17 -8.5s4.5 -8 3.5 -13s-3.83301 -10.5 -8.5 -16.5l-174 -234c-4.66699 -6.66699 -8.83398 -11.834 -12.501 -15.501s-7.83398 -6.5 -12.501 -8.5s-10.334 -3.33301 -17.001 -4s-15 -1 -25 -1s-18.167 0.833008 -24.5 2.5s-10.666 4 -12.999 7
s-3.16602 6.83301 -2.49902 11.5s3 10 7 16z" />
    <glyph glyph-name="t_icircumflex.liga" unicode="t&#xee;" horiz-adv-x="1109" 
d="M903 946c15.333 0 25.6621 -3.8291 30.9951 -11.4961s8 -18.167 8 -31.5v-883c0 -4 -1 -7.66699 -3 -11s-5.16699 -6 -9.5 -8s-10.333 -3.66699 -18 -5s-17.167 -2 -28.5 -2c-12 0 -21.833 0.666992 -29.5 2s-13.667 3 -18 5s-7.5 4.66699 -9.5 8s-3 7 -3 11v825h-500
v-547c0 -68.667 9.83301 -121 29.5 -157s55.5 -54 107.5 -54c16 0 30.5 1.66699 43.5 5s24.5 7 34.5 11s18.5 7.66699 25.5 11s13.167 5 18.5 5c3.33301 0 6.33301 -0.666992 9 -2s4.83398 -3.83301 6.50098 -7.5s3 -8.33398 4 -14.001s1.5 -12.834 1.5 -21.501
c0 -14 -1.16699 -25.333 -3.5 -34s-6 -15.5 -11 -20.5s-12.333 -9.66699 -22 -14s-20.834 -8 -33.501 -11s-26 -5.33301 -40 -7s-27.667 -2.5 -41 -2.5c-44.667 0 -82.667 6 -114 18s-57 30.167 -77 54.5s-34.5 55.166 -43.5 92.499s-13.5 81.333 -13.5 132v563h-135
c-9.33301 0 -16.666 4.16699 -21.999 12.5s-8 20.833 -8 37.5c0 8.66699 0.666992 16.167 2 22.5s3.33301 11.666 6 15.999s5.83398 7.5 9.50098 9.5s7.83398 3 12.501 3h135v222c0 4 0.833008 7.66699 2.5 11s4.83398 6.16602 9.50098 8.49902s10.834 4 18.501 5
s17.167 1.5 28.5 1.5c12 0 21.833 -0.5 29.5 -1.5s13.667 -2.66699 18 -5s7.5 -5.16602 9.5 -8.49902s3 -7 3 -11v-222h580zM728.996 1122c-4 -5.33301 -7.66895 -9.66895 -11.002 -13.002s-7.33301 -6 -12 -8s-10 -3.33301 -16 -4s-13.333 -1 -22 -1
c-13.333 0 -23.666 1 -30.999 3s-12.166 5 -14.499 9s-2.33301 9.16699 0 15.5s6.83301 13.833 13.5 22.5l169 232c3.33301 4.66699 6.83301 8.33398 10.5 11.001s8.16699 4.83398 13.5 6.50098s11.833 2.83398 19.5 3.50098s17.167 1 28.5 1c10 0 18.333 -0.333008 25 -1
s12.5 -2 17.5 -4s9.16699 -4.33301 12.5 -7s6.66602 -6 9.99902 -10l169 -232c6 -8.66699 10.167 -16.167 12.5 -22.5s2.33301 -11.5 0 -15.5s-7.16602 -7 -14.499 -9s-17.333 -3 -30 -3c-10 0 -18 0.333008 -24 1s-11.167 2 -15.5 4s-8 4.66699 -11 8
s-6.5 7.66602 -10.5 12.999l-145 198zM472.994 946.001z" />
    <glyph glyph-name="t_idieresis.liga" unicode="t&#xef;" horiz-adv-x="1109" 
d="M903 946c15.333 0 25.6621 -3.8291 30.9951 -11.4961s8 -18.167 8 -31.5v-883c0 -4 -1 -7.66699 -3 -11s-5.16699 -6 -9.5 -8s-10.333 -3.66699 -18 -5s-17.167 -2 -28.5 -2c-12 0 -21.833 0.666992 -29.5 2s-13.667 3 -18 5s-7.5 4.66699 -9.5 8s-3 7 -3 11v825h-500
v-547c0 -68.667 9.83301 -121 29.5 -157s55.5 -54 107.5 -54c16 0 30.5 1.66699 43.5 5s24.5 7 34.5 11s18.5 7.66699 25.5 11s13.167 5 18.5 5c3.33301 0 6.33301 -0.666992 9 -2s4.83398 -3.83301 6.50098 -7.5s3 -8.33398 4 -14.001s1.5 -12.834 1.5 -21.501
c0 -14 -1.16699 -25.333 -3.5 -34s-6 -15.5 -11 -20.5s-12.333 -9.66699 -22 -14s-20.834 -8 -33.501 -11s-26 -5.33301 -40 -7s-27.667 -2.5 -41 -2.5c-44.667 0 -82.667 6 -114 18s-57 30.167 -77 54.5s-34.5 55.166 -43.5 92.499s-13.5 81.333 -13.5 132v563h-135
c-9.33301 0 -16.666 4.16699 -21.999 12.5s-8 20.833 -8 37.5c0 8.66699 0.666992 16.167 2 22.5s3.33301 11.666 6 15.999s5.83398 7.5 9.50098 9.5s7.83398 3 12.501 3h135v222c0 4 0.833008 7.66699 2.5 11s4.83398 6.16602 9.50098 8.49902s10.834 4 18.501 5
s17.167 1.5 28.5 1.5c12 0 21.833 -0.5 29.5 -1.5s13.667 -2.66699 18 -5s7.5 -5.16602 9.5 -8.49902s3 -7 3 -11v-222h580zM802.996 1211c0 -30 -5.50098 -50.499 -16.501 -61.499s-30.5 -16.5 -58.5 -16.5s-47.333 5.33301 -58 16s-16 31 -16 61
c0 30.667 5.5 51.5 16.5 62.5s30.167 16.5 57.5 16.5c28.667 0 48.334 -5.33301 59.001 -16s16 -31.334 16 -62.001zM1100 1211c0 -30 -5.50098 -50.499 -16.501 -61.499s-30.5 -16.5 -58.5 -16.5s-47.333 5.33301 -58 16s-16 31 -16 61c0 30.667 5.5 51.5 16.5 62.5
s30.167 16.5 57.5 16.5c28.667 0 48.334 -5.33301 59.001 -16s16 -31.334 16 -62.001zM505.994 946.006z" />
    <glyph glyph-name="t_imacron.liga" unicode="t&#x12b;" horiz-adv-x="1109" 
d="M903 946c15.333 0 25.6621 -3.8291 30.9951 -11.4961s8 -18.167 8 -31.5v-883c0 -4 -1 -7.66699 -3 -11s-5.16699 -6 -9.5 -8s-10.333 -3.66699 -18 -5s-17.167 -2 -28.5 -2c-12 0 -21.833 0.666992 -29.5 2s-13.667 3 -18 5s-7.5 4.66699 -9.5 8s-3 7 -3 11v825h-500
v-547c0 -68.667 9.83301 -121 29.5 -157s55.5 -54 107.5 -54c16 0 30.5 1.66699 43.5 5s24.5 7 34.5 11s18.5 7.66699 25.5 11s13.167 5 18.5 5c3.33301 0 6.33301 -0.666992 9 -2s4.83398 -3.83301 6.50098 -7.5s3 -8.33398 4 -14.001s1.5 -12.834 1.5 -21.501
c0 -14 -1.16699 -25.333 -3.5 -34s-6 -15.5 -11 -20.5s-12.333 -9.66699 -22 -14s-20.834 -8 -33.501 -11s-26 -5.33301 -40 -7s-27.667 -2.5 -41 -2.5c-44.667 0 -82.667 6 -114 18s-57 30.167 -77 54.5s-34.5 55.166 -43.5 92.499s-13.5 81.333 -13.5 132v563h-135
c-9.33301 0 -16.666 4.16699 -21.999 12.5s-8 20.833 -8 37.5c0 8.66699 0.666992 16.167 2 22.5s3.33301 11.666 6 15.999s5.83398 7.5 9.50098 9.5s7.83398 3 12.501 3h135v222c0 4 0.833008 7.66699 2.5 11s4.83398 6.16602 9.50098 8.49902s10.834 4 18.501 5
s17.167 1.5 28.5 1.5c12 0 21.833 -0.5 29.5 -1.5s13.667 -2.66699 18 -5s7.5 -5.16602 9.5 -8.49902s3 -7 3 -11v-222h580zM1107 1277c4 0 7.66699 -1 11 -3s6 -5 8 -9s3.66699 -9.16699 5 -15.5s2 -13.833 2 -22.5c0 -8 -0.666992 -15 -2 -21s-3 -11.167 -5 -15.5
s-4.66699 -7.66602 -8 -9.99902s-7 -3.5 -11 -3.5h-462c-4.66699 0 -8.66699 1.16699 -12 3.5s-6.16602 5.66602 -8.49902 9.99902s-4.16602 9.5 -5.49902 15.5s-2 13 -2 21c0 8.66699 0.666992 16.167 2 22.5s3.16602 11.5 5.49902 15.5s5.16602 7 8.49902 9
s7.33301 3 12 3h462zM468.996 946.004z" />
    <glyph glyph-name="t_itilde.liga" unicode="t&#x129;" horiz-adv-x="1109" 
d="M903 946c15.333 0 25.6621 -3.8291 30.9951 -11.4961s8 -18.167 8 -31.5v-883c0 -4 -1 -7.66699 -3 -11s-5.16699 -6 -9.5 -8s-10.333 -3.66699 -18 -5s-17.167 -2 -28.5 -2c-12 0 -21.833 0.666992 -29.5 2s-13.667 3 -18 5s-7.5 4.66699 -9.5 8s-3 7 -3 11v825h-500
v-547c0 -68.667 9.83301 -121 29.5 -157s55.5 -54 107.5 -54c16 0 30.5 1.66699 43.5 5s24.5 7 34.5 11s18.5 7.66699 25.5 11s13.167 5 18.5 5c3.33301 0 6.33301 -0.666992 9 -2s4.83398 -3.83301 6.50098 -7.5s3 -8.33398 4 -14.001s1.5 -12.834 1.5 -21.501
c0 -14 -1.16699 -25.333 -3.5 -34s-6 -15.5 -11 -20.5s-12.333 -9.66699 -22 -14s-20.834 -8 -33.501 -11s-26 -5.33301 -40 -7s-27.667 -2.5 -41 -2.5c-44.667 0 -82.667 6 -114 18s-57 30.167 -77 54.5s-34.5 55.166 -43.5 92.499s-13.5 81.333 -13.5 132v563h-135
c-9.33301 0 -16.666 4.16699 -21.999 12.5s-8 20.833 -8 37.5c0 8.66699 0.666992 16.167 2 22.5s3.33301 11.666 6 15.999s5.83398 7.5 9.50098 9.5s7.83398 3 12.501 3h135v222c0 4 0.833008 7.66699 2.5 11s4.83398 6.16602 9.50098 8.49902s10.834 4 18.501 5
s17.167 1.5 28.5 1.5c12 0 21.833 -0.5 29.5 -1.5s13.667 -2.66699 18 -5s7.5 -5.16602 9.5 -8.49902s3 -7 3 -11v-222h580zM1181 1302c0 -65.333 -16.5029 -115.167 -49.5029 -149.5s-76.5 -51.5 -130.5 -51.5c-24 0 -45.5 3.5 -64.5 10.5s-36.5 15.833 -52.5 26.5
s-30.833 22.167 -44.5 34.5s-27.167 23.833 -40.5 34.5s-26.666 19.5 -39.999 26.5s-27.666 10.5 -42.999 10.5c-29.333 0 -49.666 -10.833 -60.999 -32.5s-17 -49.834 -17 -84.501c0 -4.66699 -0.5 -8.66699 -1.5 -12s-3.33301 -6 -7 -8s-9 -3.5 -16 -4.5
s-16.167 -1.5 -27.5 -1.5c-8.66699 0 -16 0.666992 -22 2s-10.667 3.5 -14 6.5s-5.83301 7.33301 -7.5 13s-2.5 12.834 -2.5 21.501c0 60 15.5 108.333 46.5 145s75.167 55 132.5 55c36 0 66.833 -7.5 92.5 -22.5s49 -31.333 70 -49l60.5 -49
c19.333 -15 40.333 -22.5 63 -22.5c26 0 45.5 9.66699 58.5 29s19.5 48.666 19.5 87.999c0 9.33301 2.83301 16 8.5 20s18.167 6 37.5 6c21.333 0 35.333 -2.66699 42 -8s10 -16.666 10 -33.999z" />
    <glyph glyph-name="t_ibreve.liga" unicode="t&#x12d;" horiz-adv-x="1109" 
d="M903 946c15.333 0 25.6621 -3.8291 30.9951 -11.4961s8 -18.167 8 -31.5v-883c0 -4 -1 -7.66699 -3 -11s-5.16699 -6 -9.5 -8s-10.333 -3.66699 -18 -5s-17.167 -2 -28.5 -2c-12 0 -21.833 0.666992 -29.5 2s-13.667 3 -18 5s-7.5 4.66699 -9.5 8s-3 7 -3 11v825h-500
v-547c0 -68.667 9.83301 -121 29.5 -157s55.5 -54 107.5 -54c16 0 30.5 1.66699 43.5 5s24.5 7 34.5 11s18.5 7.66699 25.5 11s13.167 5 18.5 5c3.33301 0 6.33301 -0.666992 9 -2s4.83398 -3.83301 6.50098 -7.5s3 -8.33398 4 -14.001s1.5 -12.834 1.5 -21.501
c0 -14 -1.16699 -25.333 -3.5 -34s-6 -15.5 -11 -20.5s-12.333 -9.66699 -22 -14s-20.834 -8 -33.501 -11s-26 -5.33301 -40 -7s-27.667 -2.5 -41 -2.5c-44.667 0 -82.667 6 -114 18s-57 30.167 -77 54.5s-34.5 55.166 -43.5 92.499s-13.5 81.333 -13.5 132v563h-135
c-9.33301 0 -16.666 4.16699 -21.999 12.5s-8 20.833 -8 37.5c0 8.66699 0.666992 16.167 2 22.5s3.33301 11.666 6 15.999s5.83398 7.5 9.50098 9.5s7.83398 3 12.501 3h135v222c0 4 0.833008 7.66699 2.5 11s4.83398 6.16602 9.50098 8.49902s10.834 4 18.501 5
s17.167 1.5 28.5 1.5c12 0 21.833 -0.5 29.5 -1.5s13.667 -2.66699 18 -5s7.5 -5.16602 9.5 -8.49902s3 -7 3 -11v-222h580zM1027 1368c0 7.33301 3.00391 13.166 9.00391 17.499s18.333 6.5 37 6.5c10 0 17.833 -0.5 23.5 -1.5s10.167 -2.5 13.5 -4.5s5.5 -4.5 6.5 -7.5
s1.5 -6.5 1.5 -10.5c0 -45.333 -5.33301 -84.666 -16 -117.999s-26.167 -61 -46.5 -83s-45.5 -38.5 -75.5 -49.5s-64 -16.5 -102 -16.5c-41.333 0 -77 6 -107 18s-54.833 29.167 -74.5 51.5s-34.167 49.833 -43.5 82.5s-14 70 -14 112c0 9.33301 3.16699 16.166 9.5 20.499
s18.166 6.5 35.499 6.5c9.33301 0 17 -0.5 23 -1.5s10.667 -2.5 14 -4.5s5.66602 -4.5 6.99902 -7.5s2 -6.5 2 -10.5c1.33301 -26 5.16602 -49.667 11.499 -71s15.5 -39.5 27.5 -54.5s27 -26.5 45 -34.5s39.333 -12 64 -12c20.667 0 39.667 3.16699 57 9.5
s32.666 16.333 45.999 30s24 31.334 32 53.001s12.667 48.167 14 79.5zM491 946.004z" />
    <glyph glyph-name="t_iogonek.liga" unicode="t&#x12f;" horiz-adv-x="1109" 
d="M901 946c16 0 26.8311 -3.83105 32.498 -11.498s8.5 -19.5 8.5 -35.5v-879c0 -8 -1.5 -17.833 -4.5 -29.5s-7.16699 -20.167 -12.5 -25.5l-81 -82c-11.333 -11.333 -20.333 -21.333 -27 -30s-11.667 -16.5 -15 -23.5s-5.5 -13.5 -6.5 -19.5s-1.5 -12 -1.5 -18
c0 -20 6.33301 -34.833 19 -44.5s32.667 -14.5 60 -14.5h121c4 0 7.5 -0.5 10.5 -1.5s5.5 -3 7.5 -6s3.5 -7.16699 4.5 -12.5s1.5 -12.333 1.5 -21c0 -7.33301 -0.5 -13.333 -1.5 -18s-2.5 -8.66699 -4.5 -12s-5 -5.83301 -9 -7.5s-9 -3.16699 -15 -4.5
c-20.667 -5.33301 -41.334 -9.16602 -62.001 -11.499s-42.667 -3.5 -66 -3.5c-28.667 0 -54.167 3.16699 -76.5 9.5s-41.333 15.5 -57 27.5s-27.5 26.833 -35.5 44.5s-12 38.167 -12 61.5c0 9.33301 0.666992 19.333 2 30s4.66602 22.334 9.99902 35.001
s13.166 26.5 23.499 41.5s24.833 31.833 43.5 50.5l65 65v845h-500v-547c0 -68.667 9.83301 -121 29.5 -157s55.5 -54 107.5 -54c16 0 30.5 1.66699 43.5 5s24.5 7 34.5 11s18.5 7.66699 25.5 11s13.167 5 18.5 5c3.33301 0 6.33301 -0.666992 9 -2
s4.83398 -3.83301 6.50098 -7.5s3 -8.33398 4 -14.001s1.5 -12.834 1.5 -21.501c0 -14 -1.16699 -25.333 -3.5 -34s-6 -15.5 -11 -20.5s-12.333 -9.66699 -22 -14s-20.834 -8 -33.501 -11s-26 -5.33301 -40 -7s-27.667 -2.5 -41 -2.5c-44.667 0 -82.667 6 -114 18
s-57 30.167 -77 54.5s-34.5 55.166 -43.5 92.499s-13.5 81.333 -13.5 132v563h-135c-9.33301 0 -16.666 4.16699 -21.999 12.5s-8 20.833 -8 37.5c0 8.66699 0.666992 16.167 2 22.5s3.33301 11.666 6 15.999s5.83398 7.5 9.50098 9.5s7.83398 3 12.501 3h135v222
c0 4 0.833008 7.66699 2.5 11s4.83398 6.16602 9.50098 8.49902s10.834 4 18.501 5s17.167 1.5 28.5 1.5c12 0 21.833 -0.5 29.5 -1.5s13.667 -2.66699 18 -5s7.5 -5.16602 9.5 -8.49902s3 -7 3 -11v-222h578zM959.998 1229c0 -15.333 -1.16699 -28.166 -3.5 -38.499
s-6.33301 -18.666 -12 -24.999s-13.5 -10.833 -23.5 -13.5s-22.667 -4 -38 -4s-28 1.33301 -38 4s-18 7.16699 -24 13.5s-10.167 14.666 -12.5 24.999s-3.5 23.166 -3.5 38.499s1.16699 28.166 3.5 38.499s6.5 18.833 12.5 25.5s14 11.334 24 14.001s22.667 4 38 4
s28 -1.33301 38 -4s17.833 -7.33398 23.5 -14.001s9.66699 -15.167 12 -25.5s3.5 -23.166 3.5 -38.499z" />
    <glyph glyph-name="t_dotlessi.liga" unicode="t&#x131;" horiz-adv-x="1109" 
d="M903 946c15.333 0 25.6621 -3.8291 30.9951 -11.4961s8 -18.167 8 -31.5v-883c0 -4 -1 -7.66699 -3 -11s-5.16699 -6 -9.5 -8s-10.333 -3.66699 -18 -5s-17.167 -2 -28.5 -2c-12 0 -21.833 0.666992 -29.5 2s-13.667 3 -18 5s-7.5 4.66699 -9.5 8s-3 7 -3 11v825h-500
v-547c0 -68.667 9.83301 -121 29.5 -157s55.5 -54 107.5 -54c16 0 30.5 1.66699 43.5 5s24.5 7 34.5 11s18.5 7.66699 25.5 11s13.167 5 18.5 5c3.33301 0 6.33301 -0.666992 9 -2s4.83398 -3.83301 6.50098 -7.5s3 -8.33398 4 -14.001s1.5 -12.834 1.5 -21.501
c0 -14 -1.16699 -25.333 -3.5 -34s-6 -15.5 -11 -20.5s-12.333 -9.66699 -22 -14s-20.834 -8 -33.501 -11s-26 -5.33301 -40 -7s-27.667 -2.5 -41 -2.5c-44.667 0 -82.667 6 -114 18s-57 30.167 -77 54.5s-34.5 55.166 -43.5 92.499s-13.5 81.333 -13.5 132v563h-135
c-9.33301 0 -16.666 4.16699 -21.999 12.5s-8 20.833 -8 37.5c0 8.66699 0.666992 16.167 2 22.5s3.33301 11.666 6 15.999s5.83398 7.5 9.50098 9.5s7.83398 3 12.501 3h135v222c0 4 0.833008 7.66699 2.5 11s4.83398 6.16602 9.50098 8.49902s10.834 4 18.501 5
s17.167 1.5 28.5 1.5c12 0 21.833 -0.5 29.5 -1.5s13.667 -2.66699 18 -5s7.5 -5.16602 9.5 -8.49902s3 -7 3 -11v-222h580z" />
    <glyph glyph-name="t_t.liga" unicode="tt" horiz-adv-x="1274" 
d="M1203 74c0 -14 -1.00781 -25.3281 -3.00781 -33.9951s-5.66699 -15.334 -11 -20.001s-12.666 -9.16699 -21.999 -13.5s-20.333 -8.16602 -33 -11.499s-26 -5.83301 -40 -7.5s-27.667 -2.5 -41 -2.5c-45.333 0 -83.666 6 -114.999 18s-56.833 30.167 -76.5 54.5
s-34 55.166 -43 92.499s-13.5 81.333 -13.5 132v563h-482v-547c0 -68.667 9.83301 -121 29.5 -157s55.5 -54 107.5 -54c16 0 30.5 1.66699 43.5 5s24.5 7 34.5 11s18.5 7.66699 25.5 11s13.167 5 18.5 5c3.33301 0 6.33301 -0.666992 9 -2s4.83398 -3.83301 6.50098 -7.5
s3 -8.33398 4 -14.001s1.5 -12.834 1.5 -21.501c0 -7.33301 -0.166992 -13.166 -0.5 -17.499s-1 -8.83301 -2 -13.5s-2.5 -9.16699 -4.5 -13.5s-5.5 -8.5 -10.5 -12.5s-12 -8 -21 -12s-19.667 -7.5 -32 -10.5s-25.5 -5.33301 -39.5 -7s-27.667 -2.5 -41 -2.5
c-44.667 0 -82.667 6 -114 18s-57 30.167 -77 54.5s-34.5 55.166 -43.5 92.499s-13.5 81.333 -13.5 132v563h-135c-9.33301 0 -16.666 4.16699 -21.999 12.5s-8 20.833 -8 37.5c0 8.66699 0.666992 16.167 2 22.5s3.33301 11.666 6 15.999s5.83398 7.5 9.50098 9.5
s7.83398 3 12.501 3h135v222c0 4 0.833008 7.66699 2.5 11s4.83398 6.16602 9.50098 8.49902s10.834 4 18.501 5s17.167 1.5 28.5 1.5c12 0 21.833 -0.5 29.5 -1.5s13.667 -2.66699 18 -5s7.5 -5.16602 9.5 -8.49902s3 -7 3 -11v-222h482v263c0 4 0.833008 7.66699 2.5 11
s4.83398 6 9.50098 8s10.834 3.66699 18.501 5s17.167 2 28.5 2s21 -0.666992 29 -2s14.167 -3 18.5 -5s7.5 -4.66699 9.5 -8s3 -7 3 -11v-263h250c4.66699 0 8.66699 -1 12 -3s6.33301 -5.16699 9 -9.5s4.66699 -9.66602 6 -15.999s2 -13.833 2 -22.5
c0 -16.667 -2.66699 -29.167 -8 -37.5s-12.333 -12.5 -21 -12.5h-250v-547c0 -68.667 9.83301 -121 29.5 -157s55.167 -54 106.5 -54c16 0 30.5 1.66699 43.5 5s24.5 7 34.5 11s18.667 7.66699 26 11s13.666 5 18.999 5c3.33301 0 6.16602 -0.666992 8.49902 -2
s4.33301 -3.83301 6 -7.5s3 -8.33398 4 -14.001s1.5 -12.834 1.5 -21.501z" />
    <glyph glyph-name="t_t_f.liga" unicode="ttf" horiz-adv-x="1832" 
d="M1856 1311c0 -9.33301 -0.504883 -16.8262 -1.50488 -22.4932s-2.33301 -10.167 -4 -13.5s-3.83398 -5.66602 -6.50098 -6.99902s-5.66699 -2 -9 -2c-5.33301 0 -11.666 1.66699 -18.999 5s-16.333 7 -27 11s-23.5 7.66699 -38.5 11s-32.5 5 -52.5 5
c-28 0 -51.667 -4.5 -71 -13.5s-34.833 -23.333 -46.5 -43s-20.167 -45 -25.5 -76s-8 -68.5 -8 -112.5v-107h222c4.66699 0 8.66699 -1 12 -3s6.33301 -5.16699 9 -9.5s4.66699 -9.66602 6 -15.999s2 -13.833 2 -22.5c0 -16.667 -2.66699 -29.167 -8 -37.5
s-12.333 -12.5 -21 -12.5h-222v-825c0 -4 -1 -7.66699 -3 -11s-5.16699 -6 -9.5 -8s-10.5 -3.66699 -18.5 -5s-17.667 -2 -29 -2s-20.833 0.666992 -28.5 2s-13.834 3 -18.501 5s-7.83398 4.66699 -9.50098 8s-2.5 7 -2.5 11v825h-504v-547
c0 -68.667 9.83301 -121 29.5 -157s55.167 -54 106.5 -54c16 0 30.5 1.66699 43.5 5s24.5 7 34.5 11s18.667 7.66699 26 11s13.666 5 18.999 5c3.33301 0 6.16602 -0.666992 8.49902 -2s4.33301 -3.83301 6 -7.5s3 -8.33398 4 -14.001s1.5 -12.834 1.5 -21.501
c0 -14 -1 -25.333 -3 -34s-5.66699 -15.5 -11 -20.5s-13 -9.66699 -23 -14s-21 -8 -33 -11s-25 -5.33301 -39 -7s-27.667 -2.5 -41 -2.5c-45.333 0 -83.666 6 -114.999 18s-56.833 30.167 -76.5 54.5s-34 55.166 -43 92.499s-13.5 81.333 -13.5 132v563h-482v-547
c0 -68.667 9.83301 -121 29.5 -157s55.5 -54 107.5 -54c16 0 30.5 1.66699 43.5 5s24.5 7 34.5 11s18.5 7.66699 25.5 11s13.167 5 18.5 5c3.33301 0 6.33301 -0.666992 9 -2s4.83398 -3.83301 6.50098 -7.5s3 -8.33398 4 -14.001s1.5 -12.834 1.5 -21.501
c0 -14 -1.16699 -25.333 -3.5 -34s-6 -15.5 -11 -20.5s-12.667 -9.66699 -23 -14s-21.5 -8 -33.5 -11s-25 -5.33301 -39 -7s-27.667 -2.5 -41 -2.5c-44.667 0 -82.667 6 -114 18s-57 30.167 -77 54.5s-34.5 55.166 -43.5 92.499s-13.5 81.333 -13.5 132v563h-135
c-9.33301 0 -16.666 4.16699 -21.999 12.5s-8 20.833 -8 37.5c0 8.66699 0.666992 16.167 2 22.5s3.33301 11.666 6 15.999s5.83398 7.5 9.50098 9.5s7.83398 3 12.501 3h135v222c0 4 0.833008 7.66699 2.5 11s4.83398 6.16602 9.50098 8.49902s10.834 4 18.501 5
s17.167 1.5 28.5 1.5c12 0 21.833 -0.5 29.5 -1.5s13.667 -2.66699 18 -5s7.5 -5.16602 9.5 -8.49902s3 -7 3 -11v-222h482v263c0 4 0.833008 7.66699 2.5 11s4.83398 6 9.50098 8s10.834 3.66699 18.501 5s17.167 2 28.5 2c12 0 21.833 -0.666992 29.5 -2s13.667 -3 18 -5
s7.5 -4.66699 9.5 -8s3 -7 3 -11v-263h504v103c0 63.333 5.66699 117.333 17 162s28.5 81 51.5 109s51.833 48.333 86.5 61s75 19 121 19c24.667 0 47.167 -2.33301 67.5 -7s35.833 -9.33398 46.5 -14.001s18 -8.83398 22 -12.501s7.16699 -8.16699 9.5 -13.5
s4 -11.5 5 -18.5s1.5 -14.833 1.5 -23.5z" />
    <glyph glyph-name="t_t_i.liga" unicode="tti" horiz-adv-x="1709" 
d="M323 845l-0.00585938 -546.993c0 -68.667 9.83301 -121 29.5 -157s55.5 -54 107.5 -54c16 0 30.5 1.66699 43.5 5s24.5 7 34.5 11s18.5 7.66699 25.5 11s13.167 5 18.5 5c3.33301 0 6.33301 -0.666992 9 -2s4.83398 -3.83301 6.50098 -7.5s3 -8.33398 4 -14.001
s1.5 -12.834 1.5 -21.501c0 -14 -1.16699 -25.333 -3.5 -34s-6 -15.5 -11 -20.5s-12.333 -9.66699 -22 -14s-20.834 -8 -33.501 -11s-26 -5.33301 -40 -7s-27.667 -2.5 -41 -2.5c-44.667 0 -82.667 6 -114 18s-57 30.167 -77 54.5s-34.5 55.166 -43.5 92.499
s-13.5 81.333 -13.5 132v563h-135c-9.33301 0 -16.666 4.16699 -21.999 12.5s-8 20.833 -8 37.5c0 8.66699 0.666992 16.167 2 22.5s3.33301 11.666 6 15.999s5.83398 7.5 9.50098 9.5s7.83398 3 12.501 3h135v222c0 4 0.833008 7.66699 2.5 11
s4.83398 6.16602 9.50098 8.49902s10.834 4 18.501 5s17.167 1.5 28.5 1.5c12 0 21.833 -0.5 29.5 -1.5s13.667 -2.66699 18 -5s7.5 -5.16602 9.5 -8.49902s3 -7 3 -11v-222h482v263c0 4 0.833008 7.66699 2.5 11s4.83398 6 9.50098 8s10.834 3.66699 18.501 5
s17.167 2 28.5 2c12 0 21.833 -0.666992 29.5 -2s13.667 -3 18 -5s7.5 -4.66699 9.5 -8s3 -7 3 -11v-263h580c14.667 0 24.834 -3.83301 30.501 -11.5s8.5 -18.167 8.5 -31.5v-883c0 -4 -1 -7.66699 -3 -11s-5.16699 -6 -9.5 -8s-10.333 -3.66699 -18 -5s-17.5 -2 -29.5 -2
c-11.333 0 -20.833 0.666992 -28.5 2s-13.834 3 -18.501 5s-7.83398 4.66699 -9.50098 8s-2.5 7 -2.5 11v825h-500v-547c0 -68.667 9.83301 -121 29.5 -157s55.167 -54 106.5 -54c16 0 30.5 1.66699 43.5 5s24.5 7 34.5 11s18.667 7.66699 26 11s13.666 5 18.999 5
c3.33301 0 6.16602 -0.666992 8.49902 -2s4.33301 -3.83301 6 -7.5s3 -8.33398 4 -14.001s1.5 -12.834 1.5 -21.501c0 -14 -1 -25.333 -3 -34s-5.66699 -15.5 -11 -20.5s-12.666 -9.66699 -21.999 -14s-20.333 -8 -33 -11s-26 -5.33301 -40 -7s-27.667 -2.5 -41 -2.5
c-45.333 0 -83.666 6 -114.999 18s-56.833 30.167 -76.5 54.5s-34 55.166 -43 92.499s-13.5 81.333 -13.5 132v563h-482zM1560.99 1230.01c0 -32 -5.66699 -53.667 -17 -65s-32 -17 -62 -17c-29.333 0 -49.5 5.5 -60.5 16.5s-16.5 32.5 -16.5 64.5s5.66699 53.667 17 65
s32 17 62 17c29.333 0 49.5 -5.5 60.5 -16.5s16.5 -32.5 16.5 -64.5zM1256.99 946.007z" />
    <glyph glyph-name="t_t_igrave.liga" unicode="tt&#xec;" horiz-adv-x="1709" 
d="M323 845l-0.00585938 -546.993c0 -68.667 9.83301 -121 29.5 -157s55.5 -54 107.5 -54c16 0 30.5 1.66699 43.5 5s24.5 7 34.5 11s18.5 7.66699 25.5 11s13.167 5 18.5 5c3.33301 0 6.33301 -0.666992 9 -2s4.83398 -3.83301 6.50098 -7.5s3 -8.33398 4 -14.001
s1.5 -12.834 1.5 -21.501c0 -14 -1.16699 -25.333 -3.5 -34s-6 -15.5 -11 -20.5s-12.333 -9.66699 -22 -14s-20.834 -8 -33.501 -11s-26 -5.33301 -40 -7s-27.667 -2.5 -41 -2.5c-44.667 0 -82.667 6 -114 18s-57 30.167 -77 54.5s-34.5 55.166 -43.5 92.499
s-13.5 81.333 -13.5 132v563h-135c-9.33301 0 -16.666 4.16699 -21.999 12.5s-8 20.833 -8 37.5c0 8.66699 0.666992 16.167 2 22.5s3.33301 11.666 6 15.999s5.83398 7.5 9.50098 9.5s7.83398 3 12.501 3h135v222c0 4 0.833008 7.66699 2.5 11
s4.83398 6.16602 9.50098 8.49902s10.834 4 18.501 5s17.167 1.5 28.5 1.5c12 0 21.833 -0.5 29.5 -1.5s13.667 -2.66699 18 -5s7.5 -5.16602 9.5 -8.49902s3 -7 3 -11v-222h482v263c0 4 0.833008 7.66699 2.5 11s4.83398 6 9.50098 8s10.834 3.66699 18.501 5
s17.167 2 28.5 2c12 0 21.833 -0.666992 29.5 -2s13.667 -3 18 -5s7.5 -4.66699 9.5 -8s3 -7 3 -11v-263h580c14.667 0 24.834 -3.83301 30.501 -11.5s8.5 -18.167 8.5 -31.5v-883c0 -4 -1 -7.66699 -3 -11s-5.16699 -6 -9.5 -8s-10.333 -3.66699 -18 -5s-17.5 -2 -29.5 -2
c-11.333 0 -20.833 0.666992 -28.5 2s-13.834 3 -18.501 5s-7.83398 4.66699 -9.50098 8s-2.5 7 -2.5 11v825h-500v-547c0 -68.667 9.83301 -121 29.5 -157s55.167 -54 106.5 -54c16 0 30.5 1.66699 43.5 5s24.5 7 34.5 11s18.667 7.66699 26 11s13.666 5 18.999 5
c3.33301 0 6.16602 -0.666992 8.49902 -2s4.33301 -3.83301 6 -7.5s3 -8.33398 4 -14.001s1.5 -12.834 1.5 -21.501c0 -14 -1 -25.333 -3 -34s-5.66699 -15.5 -11 -20.5s-12.666 -9.66699 -21.999 -14s-20.333 -8 -33 -11s-26 -5.33301 -40 -7s-27.667 -2.5 -41 -2.5
c-45.333 0 -83.666 6 -114.999 18s-56.833 30.167 -76.5 54.5s-34 55.166 -43 92.499s-13.5 81.333 -13.5 132v563h-482zM1519.99 1133.01c4 -6 6.5 -11.333 7.5 -16s0.333008 -8.5 -2 -11.5s-6.5 -5.33301 -12.5 -7s-14 -2.5 -24 -2.5s-18.333 0.333008 -25 1
s-12.5 2 -17.5 4s-9.5 4.83301 -13.5 8.5s-8.33301 8.83398 -13 15.501l-174 234c-4.66699 6 -7.33398 11.5 -8.00098 16.5s0.666016 9.33301 3.99902 13s9 6.5 17 8.5s18.333 3 31 3s23.334 -0.5 32.001 -1.5s16 -2.66699 22 -5s11.333 -5.83301 16 -10.5
s9.33398 -10.334 14.001 -17.001z" />
    <glyph glyph-name="t_t_iacute.liga" unicode="tt&#xed;" horiz-adv-x="1709" 
d="M323 845l-0.00585938 -546.993c0 -68.667 9.83301 -121 29.5 -157s55.5 -54 107.5 -54c16 0 30.5 1.66699 43.5 5s24.5 7 34.5 11s18.5 7.66699 25.5 11s13.167 5 18.5 5c3.33301 0 6.33301 -0.666992 9 -2s4.83398 -3.83301 6.50098 -7.5s3 -8.33398 4 -14.001
s1.5 -12.834 1.5 -21.501c0 -14 -1.16699 -25.333 -3.5 -34s-6 -15.5 -11 -20.5s-12.333 -9.66699 -22 -14s-20.834 -8 -33.501 -11s-26 -5.33301 -40 -7s-27.667 -2.5 -41 -2.5c-44.667 0 -82.667 6 -114 18s-57 30.167 -77 54.5s-34.5 55.166 -43.5 92.499
s-13.5 81.333 -13.5 132v563h-135c-9.33301 0 -16.666 4.16699 -21.999 12.5s-8 20.833 -8 37.5c0 8.66699 0.666992 16.167 2 22.5s3.33301 11.666 6 15.999s5.83398 7.5 9.50098 9.5s7.83398 3 12.501 3h135v222c0 4 0.833008 7.66699 2.5 11
s4.83398 6.16602 9.50098 8.49902s10.834 4 18.501 5s17.167 1.5 28.5 1.5c12 0 21.833 -0.5 29.5 -1.5s13.667 -2.66699 18 -5s7.5 -5.16602 9.5 -8.49902s3 -7 3 -11v-222h482v263c0 4 0.833008 7.66699 2.5 11s4.83398 6 9.50098 8s10.834 3.66699 18.501 5
s17.167 2 28.5 2c12 0 21.833 -0.666992 29.5 -2s13.667 -3 18 -5s7.5 -4.66699 9.5 -8s3 -7 3 -11v-263h580c14.667 0 24.834 -3.83301 30.501 -11.5s8.5 -18.167 8.5 -31.5v-883c0 -4 -1 -7.66699 -3 -11s-5.16699 -6 -9.5 -8s-10.333 -3.66699 -18 -5s-17.5 -2 -29.5 -2
c-11.333 0 -20.833 0.666992 -28.5 2s-13.834 3 -18.501 5s-7.83398 4.66699 -9.50098 8s-2.5 7 -2.5 11v825h-500v-547c0 -68.667 9.83301 -121 29.5 -157s55.167 -54 106.5 -54c16 0 30.5 1.66699 43.5 5s24.5 7 34.5 11s18.667 7.66699 26 11s13.666 5 18.999 5
c3.33301 0 6.16602 -0.666992 8.49902 -2s4.33301 -3.83301 6 -7.5s3 -8.33398 4 -14.001s1.5 -12.834 1.5 -21.501c0 -14 -1 -25.333 -3 -34s-5.66699 -15.5 -11 -20.5s-12.666 -9.66699 -21.999 -14s-20.333 -8 -33 -11s-26 -5.33301 -40 -7s-27.667 -2.5 -41 -2.5
c-45.333 0 -83.666 6 -114.999 18s-56.833 30.167 -76.5 54.5s-34 55.166 -43 92.499s-13.5 81.333 -13.5 132v563h-482zM1573.99 1366.01c4 6.66699 8.33398 12.334 13.001 17.001s10.167 8.16699 16.5 10.5s14 4 23 5s19.833 1.5 32.5 1.5s23 -1 31 -3
s13.667 -4.83301 17 -8.5s4.5 -8 3.5 -13s-3.83301 -10.5 -8.5 -16.5l-174 -234c-4.66699 -6.66699 -8.83398 -11.834 -12.501 -15.501s-7.83398 -6.5 -12.501 -8.5s-10.334 -3.33301 -17.001 -4s-15 -1 -25 -1s-18.167 0.833008 -24.5 2.5s-10.666 4 -12.999 7
s-3.16602 6.83301 -2.49902 11.5s3 10 7 16z" />
    <glyph glyph-name="t_t_icircumflex.liga" unicode="tt&#xee;" horiz-adv-x="1709" 
d="M323 845l-0.00585938 -546.993c0 -68.667 9.83301 -121 29.5 -157s55.5 -54 107.5 -54c16 0 30.5 1.66699 43.5 5s24.5 7 34.5 11s18.5 7.66699 25.5 11s13.167 5 18.5 5c3.33301 0 6.33301 -0.666992 9 -2s4.83398 -3.83301 6.50098 -7.5s3 -8.33398 4 -14.001
s1.5 -12.834 1.5 -21.501c0 -14 -1.16699 -25.333 -3.5 -34s-6 -15.5 -11 -20.5s-12.333 -9.66699 -22 -14s-20.834 -8 -33.501 -11s-26 -5.33301 -40 -7s-27.667 -2.5 -41 -2.5c-44.667 0 -82.667 6 -114 18s-57 30.167 -77 54.5s-34.5 55.166 -43.5 92.499
s-13.5 81.333 -13.5 132v563h-135c-9.33301 0 -16.666 4.16699 -21.999 12.5s-8 20.833 -8 37.5c0 8.66699 0.666992 16.167 2 22.5s3.33301 11.666 6 15.999s5.83398 7.5 9.50098 9.5s7.83398 3 12.501 3h135v222c0 4 0.833008 7.66699 2.5 11
s4.83398 6.16602 9.50098 8.49902s10.834 4 18.501 5s17.167 1.5 28.5 1.5c12 0 21.833 -0.5 29.5 -1.5s13.667 -2.66699 18 -5s7.5 -5.16602 9.5 -8.49902s3 -7 3 -11v-222h482v263c0 4 0.833008 7.66699 2.5 11s4.83398 6 9.50098 8s10.834 3.66699 18.501 5
s17.167 2 28.5 2c12 0 21.833 -0.666992 29.5 -2s13.667 -3 18 -5s7.5 -4.66699 9.5 -8s3 -7 3 -11v-263h580c14.667 0 24.834 -3.83301 30.501 -11.5s8.5 -18.167 8.5 -31.5v-883c0 -4 -1 -7.66699 -3 -11s-5.16699 -6 -9.5 -8s-10.333 -3.66699 -18 -5s-17.5 -2 -29.5 -2
c-11.333 0 -20.833 0.666992 -28.5 2s-13.834 3 -18.501 5s-7.83398 4.66699 -9.50098 8s-2.5 7 -2.5 11v825h-500v-547c0 -68.667 9.83301 -121 29.5 -157s55.167 -54 106.5 -54c16 0 30.5 1.66699 43.5 5s24.5 7 34.5 11s18.667 7.66699 26 11s13.666 5 18.999 5
c3.33301 0 6.16602 -0.666992 8.49902 -2s4.33301 -3.83301 6 -7.5s3 -8.33398 4 -14.001s1.5 -12.834 1.5 -21.501c0 -14 -1 -25.333 -3 -34s-5.66699 -15.5 -11 -20.5s-12.666 -9.66699 -21.999 -14s-20.333 -8 -33 -11s-26 -5.33301 -40 -7s-27.667 -2.5 -41 -2.5
c-45.333 0 -83.666 6 -114.999 18s-56.833 30.167 -76.5 54.5s-34 55.166 -43 92.499s-13.5 81.333 -13.5 132v563h-482zM1328.99 1122.01c-4 -5.33301 -7.66895 -9.66895 -11.002 -13.002s-7.33301 -6 -12 -8s-10 -3.33301 -16 -4s-13.333 -1 -22 -1
c-13.333 0 -23.666 1 -30.999 3s-12.166 5 -14.499 9s-2.33301 9.16699 0 15.5s6.83301 13.833 13.5 22.5l169 232c3.33301 4.66699 6.83301 8.33398 10.5 11.001s8.16699 4.83398 13.5 6.50098s11.833 2.83398 19.5 3.50098s17.167 1 28.5 1c10 0 18.333 -0.333008 25 -1
s12.5 -2 17.5 -4s9.16699 -4.33301 12.5 -7s6.66602 -6 9.99902 -10l169 -232c6 -8.66699 10.167 -16.167 12.5 -22.5s2.33301 -11.5 0 -15.5s-7.16602 -7 -14.499 -9s-17.333 -3 -30 -3c-10 0 -18 0.333008 -24 1s-11.167 2 -15.5 4s-8 4.66699 -11 8
s-6.5 7.66602 -10.5 12.999l-145 198zM1072.99 946.004z" />
    <glyph glyph-name="t_t_idieresis.liga" unicode="tt&#xef;" horiz-adv-x="1709" 
d="M323 845l-0.00585938 -546.993c0 -68.667 9.83301 -121 29.5 -157s55.5 -54 107.5 -54c16 0 30.5 1.66699 43.5 5s24.5 7 34.5 11s18.5 7.66699 25.5 11s13.167 5 18.5 5c3.33301 0 6.33301 -0.666992 9 -2s4.83398 -3.83301 6.50098 -7.5s3 -8.33398 4 -14.001
s1.5 -12.834 1.5 -21.501c0 -14 -1.16699 -25.333 -3.5 -34s-6 -15.5 -11 -20.5s-12.333 -9.66699 -22 -14s-20.834 -8 -33.501 -11s-26 -5.33301 -40 -7s-27.667 -2.5 -41 -2.5c-44.667 0 -82.667 6 -114 18s-57 30.167 -77 54.5s-34.5 55.166 -43.5 92.499
s-13.5 81.333 -13.5 132v563h-135c-9.33301 0 -16.666 4.16699 -21.999 12.5s-8 20.833 -8 37.5c0 8.66699 0.666992 16.167 2 22.5s3.33301 11.666 6 15.999s5.83398 7.5 9.50098 9.5s7.83398 3 12.501 3h135v222c0 4 0.833008 7.66699 2.5 11
s4.83398 6.16602 9.50098 8.49902s10.834 4 18.501 5s17.167 1.5 28.5 1.5c12 0 21.833 -0.5 29.5 -1.5s13.667 -2.66699 18 -5s7.5 -5.16602 9.5 -8.49902s3 -7 3 -11v-222h482v263c0 4 0.833008 7.66699 2.5 11s4.83398 6 9.50098 8s10.834 3.66699 18.501 5
s17.167 2 28.5 2c12 0 21.833 -0.666992 29.5 -2s13.667 -3 18 -5s7.5 -4.66699 9.5 -8s3 -7 3 -11v-263h580c14.667 0 24.834 -3.83301 30.501 -11.5s8.5 -18.167 8.5 -31.5v-883c0 -4 -1 -7.66699 -3 -11s-5.16699 -6 -9.5 -8s-10.333 -3.66699 -18 -5s-17.5 -2 -29.5 -2
c-11.333 0 -20.833 0.666992 -28.5 2s-13.834 3 -18.501 5s-7.83398 4.66699 -9.50098 8s-2.5 7 -2.5 11v825h-500v-547c0 -68.667 9.83301 -121 29.5 -157s55.167 -54 106.5 -54c16 0 30.5 1.66699 43.5 5s24.5 7 34.5 11s18.667 7.66699 26 11s13.666 5 18.999 5
c3.33301 0 6.16602 -0.666992 8.49902 -2s4.33301 -3.83301 6 -7.5s3 -8.33398 4 -14.001s1.5 -12.834 1.5 -21.501c0 -14 -1 -25.333 -3 -34s-5.66699 -15.5 -11 -20.5s-12.666 -9.66699 -21.999 -14s-20.333 -8 -33 -11s-26 -5.33301 -40 -7s-27.667 -2.5 -41 -2.5
c-45.333 0 -83.666 6 -114.999 18s-56.833 30.167 -76.5 54.5s-34 55.166 -43 92.499s-13.5 81.333 -13.5 132v563h-482zM1403.99 1211.01c0 -30 -5.50098 -50.499 -16.501 -61.499s-30.5 -16.5 -58.5 -16.5s-47.333 5.33301 -58 16s-16 31 -16 61
c0 30.667 5.5 51.5 16.5 62.5s30.167 16.5 57.5 16.5c28.667 0 48.334 -5.33301 59.001 -16s16 -31.334 16 -62.001zM1700.99 1211.01c0 -30 -5.50098 -50.499 -16.501 -61.499s-30.5 -16.5 -58.5 -16.5s-47.333 5.33301 -58 16s-16 31 -16 61c0 30.667 5.5 51.5 16.5 62.5
s30.167 16.5 57.5 16.5c28.667 0 48.334 -5.33301 59.001 -16s16 -31.334 16 -62.001zM1106.99 946.009z" />
    <glyph glyph-name="t_t_imacron.liga" unicode="tt&#x12b;" horiz-adv-x="1709" 
d="M323 845l-0.00585938 -546.993c0 -68.667 9.83301 -121 29.5 -157s55.5 -54 107.5 -54c16 0 30.5 1.66699 43.5 5s24.5 7 34.5 11s18.5 7.66699 25.5 11s13.167 5 18.5 5c3.33301 0 6.33301 -0.666992 9 -2s4.83398 -3.83301 6.50098 -7.5s3 -8.33398 4 -14.001
s1.5 -12.834 1.5 -21.501c0 -14 -1.16699 -25.333 -3.5 -34s-6 -15.5 -11 -20.5s-12.333 -9.66699 -22 -14s-20.834 -8 -33.501 -11s-26 -5.33301 -40 -7s-27.667 -2.5 -41 -2.5c-44.667 0 -82.667 6 -114 18s-57 30.167 -77 54.5s-34.5 55.166 -43.5 92.499
s-13.5 81.333 -13.5 132v563h-135c-9.33301 0 -16.666 4.16699 -21.999 12.5s-8 20.833 -8 37.5c0 8.66699 0.666992 16.167 2 22.5s3.33301 11.666 6 15.999s5.83398 7.5 9.50098 9.5s7.83398 3 12.501 3h135v222c0 4 0.833008 7.66699 2.5 11
s4.83398 6.16602 9.50098 8.49902s10.834 4 18.501 5s17.167 1.5 28.5 1.5c12 0 21.833 -0.5 29.5 -1.5s13.667 -2.66699 18 -5s7.5 -5.16602 9.5 -8.49902s3 -7 3 -11v-222h482v263c0 4 0.833008 7.66699 2.5 11s4.83398 6 9.50098 8s10.834 3.66699 18.501 5
s17.167 2 28.5 2c12 0 21.833 -0.666992 29.5 -2s13.667 -3 18 -5s7.5 -4.66699 9.5 -8s3 -7 3 -11v-263h580c14.667 0 24.834 -3.83301 30.501 -11.5s8.5 -18.167 8.5 -31.5v-883c0 -4 -1 -7.66699 -3 -11s-5.16699 -6 -9.5 -8s-10.333 -3.66699 -18 -5s-17.5 -2 -29.5 -2
c-11.333 0 -20.833 0.666992 -28.5 2s-13.834 3 -18.501 5s-7.83398 4.66699 -9.50098 8s-2.5 7 -2.5 11v825h-500v-547c0 -68.667 9.83301 -121 29.5 -157s55.167 -54 106.5 -54c16 0 30.5 1.66699 43.5 5s24.5 7 34.5 11s18.667 7.66699 26 11s13.666 5 18.999 5
c3.33301 0 6.16602 -0.666992 8.49902 -2s4.33301 -3.83301 6 -7.5s3 -8.33398 4 -14.001s1.5 -12.834 1.5 -21.501c0 -14 -1 -25.333 -3 -34s-5.66699 -15.5 -11 -20.5s-12.666 -9.66699 -21.999 -14s-20.333 -8 -33 -11s-26 -5.33301 -40 -7s-27.667 -2.5 -41 -2.5
c-45.333 0 -83.666 6 -114.999 18s-56.833 30.167 -76.5 54.5s-34 55.166 -43 92.499s-13.5 81.333 -13.5 132v563h-482zM1707.99 1277.01c4 0 7.66699 -1 11 -3s6 -5 8 -9s3.66699 -9.16699 5 -15.5s2 -13.833 2 -22.5c0 -8 -0.666992 -15 -2 -21s-3 -11.167 -5 -15.5
s-4.66699 -7.66602 -8 -9.99902s-7 -3.5 -11 -3.5h-462c-4.66699 0 -8.66699 1.16699 -12 3.5s-6.16602 5.66602 -8.49902 9.99902s-4.16602 9.5 -5.49902 15.5s-2 13 -2 21c0 8.66699 0.666992 16.167 2 22.5s3.16602 11.5 5.49902 15.5s5.16602 7 8.49902 9
s7.33301 3 12 3h462zM1069.99 946.007z" />
    <glyph glyph-name="t_t_itilde.liga" unicode="tt&#x129;" horiz-adv-x="1709" 
d="M323 845l-0.00585938 -546.993c0 -68.667 9.83301 -121 29.5 -157s55.5 -54 107.5 -54c16 0 30.5 1.66699 43.5 5s24.5 7 34.5 11s18.5 7.66699 25.5 11s13.167 5 18.5 5c3.33301 0 6.33301 -0.666992 9 -2s4.83398 -3.83301 6.50098 -7.5s3 -8.33398 4 -14.001
s1.5 -12.834 1.5 -21.501c0 -14 -1.16699 -25.333 -3.5 -34s-6 -15.5 -11 -20.5s-12.333 -9.66699 -22 -14s-20.834 -8 -33.501 -11s-26 -5.33301 -40 -7s-27.667 -2.5 -41 -2.5c-44.667 0 -82.667 6 -114 18s-57 30.167 -77 54.5s-34.5 55.166 -43.5 92.499
s-13.5 81.333 -13.5 132v563h-135c-9.33301 0 -16.666 4.16699 -21.999 12.5s-8 20.833 -8 37.5c0 8.66699 0.666992 16.167 2 22.5s3.33301 11.666 6 15.999s5.83398 7.5 9.50098 9.5s7.83398 3 12.501 3h135v222c0 4 0.833008 7.66699 2.5 11
s4.83398 6.16602 9.50098 8.49902s10.834 4 18.501 5s17.167 1.5 28.5 1.5c12 0 21.833 -0.5 29.5 -1.5s13.667 -2.66699 18 -5s7.5 -5.16602 9.5 -8.49902s3 -7 3 -11v-222h482v263c0 4 0.833008 7.66699 2.5 11s4.83398 6 9.50098 8s10.834 3.66699 18.501 5
s17.167 2 28.5 2c12 0 21.833 -0.666992 29.5 -2s13.667 -3 18 -5s7.5 -4.66699 9.5 -8s3 -7 3 -11v-263h580c14.667 0 24.834 -3.83301 30.501 -11.5s8.5 -18.167 8.5 -31.5v-883c0 -4 -1 -7.66699 -3 -11s-5.16699 -6 -9.5 -8s-10.333 -3.66699 -18 -5s-17.5 -2 -29.5 -2
c-11.333 0 -20.833 0.666992 -28.5 2s-13.834 3 -18.501 5s-7.83398 4.66699 -9.50098 8s-2.5 7 -2.5 11v825h-500v-547c0 -68.667 9.83301 -121 29.5 -157s55.167 -54 106.5 -54c16 0 30.5 1.66699 43.5 5s24.5 7 34.5 11s18.667 7.66699 26 11s13.666 5 18.999 5
c3.33301 0 6.16602 -0.666992 8.49902 -2s4.33301 -3.83301 6 -7.5s3 -8.33398 4 -14.001s1.5 -12.834 1.5 -21.501c0 -14 -1 -25.333 -3 -34s-5.66699 -15.5 -11 -20.5s-12.666 -9.66699 -21.999 -14s-20.333 -8 -33 -11s-26 -5.33301 -40 -7s-27.667 -2.5 -41 -2.5
c-45.333 0 -83.666 6 -114.999 18s-56.833 30.167 -76.5 54.5s-34 55.166 -43 92.499s-13.5 81.333 -13.5 132v563h-482zM1781.99 1302.01c0 -65.333 -16.5029 -115.167 -49.5029 -149.5s-76.5 -51.5 -130.5 -51.5c-24 0 -45.5 3.5 -64.5 10.5s-36.5 15.833 -52.5 26.5
s-30.833 22.167 -44.5 34.5s-27.167 23.833 -40.5 34.5s-26.666 19.5 -39.999 26.5s-27.666 10.5 -42.999 10.5c-29.333 0 -49.666 -10.833 -60.999 -32.5s-17 -49.834 -17 -84.501c0 -4.66699 -0.5 -8.66699 -1.5 -12s-3.33301 -6 -7 -8s-9 -3.5 -16 -4.5
s-16.167 -1.5 -27.5 -1.5c-8.66699 0 -16 0.666992 -22 2s-10.667 3.5 -14 6.5s-5.83301 7.33301 -7.5 13s-2.5 12.834 -2.5 21.501c0 60 15.5 108.333 46.5 145s75.167 55 132.5 55c36 0 66.833 -7.5 92.5 -22.5s49 -31.333 70 -49l60.5 -49
c19.333 -15 40.333 -22.5 63 -22.5c26 0 45.5 9.66699 58.5 29s19.5 48.666 19.5 87.999c0 9.33301 2.83301 16 8.5 20s18.167 6 37.5 6c21.333 0 35.333 -2.66699 42 -8s10 -16.666 10 -33.999z" />
    <glyph glyph-name="t_t_ibreve.liga" unicode="tt&#x12d;" horiz-adv-x="1709" 
d="M323 845l-0.00585938 -546.993c0 -68.667 9.83301 -121 29.5 -157s55.5 -54 107.5 -54c16 0 30.5 1.66699 43.5 5s24.5 7 34.5 11s18.5 7.66699 25.5 11s13.167 5 18.5 5c3.33301 0 6.33301 -0.666992 9 -2s4.83398 -3.83301 6.50098 -7.5s3 -8.33398 4 -14.001
s1.5 -12.834 1.5 -21.501c0 -14 -1.16699 -25.333 -3.5 -34s-6 -15.5 -11 -20.5s-12.333 -9.66699 -22 -14s-20.834 -8 -33.501 -11s-26 -5.33301 -40 -7s-27.667 -2.5 -41 -2.5c-44.667 0 -82.667 6 -114 18s-57 30.167 -77 54.5s-34.5 55.166 -43.5 92.499
s-13.5 81.333 -13.5 132v563h-135c-9.33301 0 -16.666 4.16699 -21.999 12.5s-8 20.833 -8 37.5c0 8.66699 0.666992 16.167 2 22.5s3.33301 11.666 6 15.999s5.83398 7.5 9.50098 9.5s7.83398 3 12.501 3h135v222c0 4 0.833008 7.66699 2.5 11
s4.83398 6.16602 9.50098 8.49902s10.834 4 18.501 5s17.167 1.5 28.5 1.5c12 0 21.833 -0.5 29.5 -1.5s13.667 -2.66699 18 -5s7.5 -5.16602 9.5 -8.49902s3 -7 3 -11v-222h482v263c0 4 0.833008 7.66699 2.5 11s4.83398 6 9.50098 8s10.834 3.66699 18.501 5
s17.167 2 28.5 2c12 0 21.833 -0.666992 29.5 -2s13.667 -3 18 -5s7.5 -4.66699 9.5 -8s3 -7 3 -11v-263h580c14.667 0 24.834 -3.83301 30.501 -11.5s8.5 -18.167 8.5 -31.5v-883c0 -4 -1 -7.66699 -3 -11s-5.16699 -6 -9.5 -8s-10.333 -3.66699 -18 -5s-17.5 -2 -29.5 -2
c-11.333 0 -20.833 0.666992 -28.5 2s-13.834 3 -18.501 5s-7.83398 4.66699 -9.50098 8s-2.5 7 -2.5 11v825h-500v-547c0 -68.667 9.83301 -121 29.5 -157s55.167 -54 106.5 -54c16 0 30.5 1.66699 43.5 5s24.5 7 34.5 11s18.667 7.66699 26 11s13.666 5 18.999 5
c3.33301 0 6.16602 -0.666992 8.49902 -2s4.33301 -3.83301 6 -7.5s3 -8.33398 4 -14.001s1.5 -12.834 1.5 -21.501c0 -14 -1 -25.333 -3 -34s-5.66699 -15.5 -11 -20.5s-12.666 -9.66699 -21.999 -14s-20.333 -8 -33 -11s-26 -5.33301 -40 -7s-27.667 -2.5 -41 -2.5
c-45.333 0 -83.666 6 -114.999 18s-56.833 30.167 -76.5 54.5s-34 55.166 -43 92.499s-13.5 81.333 -13.5 132v563h-482zM1627.99 1368.01c0 7.33301 3.00391 13.166 9.00391 17.499s18.333 6.5 37 6.5c10 0 17.833 -0.5 23.5 -1.5s10.167 -2.5 13.5 -4.5s5.5 -4.5 6.5 -7.5
s1.5 -6.5 1.5 -10.5c0 -45.333 -5.33301 -84.666 -16 -117.999s-26.167 -61 -46.5 -83s-45.5 -38.5 -75.5 -49.5s-64 -16.5 -102 -16.5c-41.333 0 -77 6 -107 18s-54.833 29.167 -74.5 51.5s-34.167 49.833 -43.5 82.5s-14 70 -14 112c0 9.33301 3.16699 16.166 9.5 20.499
s18.166 6.5 35.499 6.5c9.33301 0 17 -0.5 23 -1.5s10.667 -2.5 14 -4.5s5.66602 -4.5 6.99902 -7.5s2 -6.5 2 -10.5c1.33301 -26 5.16602 -49.667 11.499 -71s15.5 -39.5 27.5 -54.5s27 -26.5 45 -34.5s39.333 -12 64 -12c20.667 0 39.667 3.16699 57 9.5
s32.666 16.333 45.999 30s24 31.334 32 53.001s12.667 48.167 14 79.5zM1092 946.007z" />
    <glyph glyph-name="t_t_iogonek.liga" unicode="tt&#x12f;" horiz-adv-x="1709" 
d="M1619 -308c0 -7.33301 -0.506836 -13.3281 -1.50684 -17.9951s-2.5 -8.66699 -4.5 -12s-5 -5.83301 -9 -7.5s-9 -3.16699 -15 -4.5c-20.667 -5.33301 -41.334 -9.16602 -62.001 -11.499s-42.667 -3.5 -66 -3.5c-28.667 0 -54.334 3.16699 -77.001 9.5
s-41.667 15.5 -57 27.5s-27.166 26.833 -35.499 44.5s-12.5 38.167 -12.5 61.5c0 9.33301 0.666992 19.333 2 30s4.66602 22.334 9.99902 35.001s13.333 26.5 24 41.5s25.334 31.833 44.001 50.5l65 65v845h-500v-547c0 -68.667 9.83301 -121 29.5 -157
s55.167 -54 106.5 -54c16 0 30.5 1.66699 43.5 5s24.5 7 34.5 11s18.667 7.66699 26 11s13.666 5 18.999 5c3.33301 0 6.16602 -0.666992 8.49902 -2s4.33301 -3.83301 6 -7.5s3 -8.33398 4 -14.001s1.5 -12.834 1.5 -21.501c0 -14 -1 -25.333 -3 -34
s-5.66699 -15.5 -11 -20.5s-12.666 -9.66699 -21.999 -14s-20.333 -8 -33 -11s-26 -5.33301 -40 -7s-27.667 -2.5 -41 -2.5c-45.333 0 -83.666 6 -114.999 18s-56.833 30.167 -76.5 54.5s-34 55.166 -43 92.499s-13.5 81.333 -13.5 132v563h-482v-547
c0 -68.667 9.83301 -121 29.5 -157s55.5 -54 107.5 -54c16 0 30.5 1.66699 43.5 5s24.5 7 34.5 11s18.5 7.66699 25.5 11s13.167 5 18.5 5c3.33301 0 6.33301 -0.666992 9 -2s4.83398 -3.83301 6.50098 -7.5s3 -8.33398 4 -14.001s1.5 -12.834 1.5 -21.501
c0 -14 -1.16699 -25.333 -3.5 -34s-6 -15.5 -11 -20.5s-12.333 -9.66699 -22 -14s-20.834 -8 -33.501 -11s-26 -5.33301 -40 -7s-27.667 -2.5 -41 -2.5c-44.667 0 -82.667 6 -114 18s-57 30.167 -77 54.5s-34.5 55.166 -43.5 92.499s-13.5 81.333 -13.5 132v563h-135
c-9.33301 0 -16.666 4.16699 -21.999 12.5s-8 20.833 -8 37.5c0 8.66699 0.666992 16.167 2 22.5s3.33301 11.666 6 15.999s5.83398 7.5 9.50098 9.5s7.83398 3 12.501 3h135v222c0 4 0.833008 7.66699 2.5 11s4.83398 6.16602 9.50098 8.49902s10.834 4 18.501 5
s17.167 1.5 28.5 1.5c12 0 21.833 -0.5 29.5 -1.5s13.667 -2.66699 18 -5s7.5 -5.16602 9.5 -8.49902s3 -7 3 -11v-222h482v263c0 4 0.833008 7.66699 2.5 11s4.83398 6 9.50098 8s10.834 3.66699 18.501 5s17.167 2 28.5 2s21 -0.666992 29 -2s14.167 -3 18.5 -5
s7.5 -4.66699 9.5 -8s3 -7 3 -11v-263h580c14.667 0 24.834 -3.83301 30.501 -11.5s8.5 -18.167 8.5 -31.5v-883c0 -8 -1.5 -17.833 -4.5 -29.5s-7.16699 -20.167 -12.5 -25.5l-82 -82c-22 -22 -35.833 -39.833 -41.5 -53.5s-8.5 -26.167 -8.5 -37.5
c0 -39.333 26.667 -59 80 -59h120c4 0 7.66699 -0.5 11 -1.5s6 -3 8 -6s3.5 -7.16699 4.5 -12.5s1.5 -12.333 1.5 -21zM1560.99 1229c0 -15.333 -1.16699 -28.166 -3.5 -38.499s-6.5 -18.666 -12.5 -24.999s-14 -10.833 -24 -13.5s-22.667 -4 -38 -4s-28 1.33301 -38 4
s-18 7.16699 -24 13.5s-10.167 14.666 -12.5 24.999s-3.5 23.166 -3.5 38.499s1.16699 28.166 3.5 38.499s6.5 18.833 12.5 25.5s14 11.334 24 14.001s22.667 4 38 4s28 -1.33301 38 -4s18 -7.33398 24 -14.001s10.167 -15.167 12.5 -25.5s3.5 -23.166 3.5 -38.499z" />
    <glyph glyph-name="t_t_dotlessi.liga" unicode="tt&#x131;" horiz-adv-x="1709" 
d="M323 845l-0.00585938 -546.993c0 -68.667 9.83301 -121 29.5 -157s55.5 -54 107.5 -54c16 0 30.5 1.66699 43.5 5s24.5 7 34.5 11s18.5 7.66699 25.5 11s13.167 5 18.5 5c3.33301 0 6.33301 -0.666992 9 -2s4.83398 -3.83301 6.50098 -7.5s3 -8.33398 4 -14.001
s1.5 -12.834 1.5 -21.501c0 -14 -1.16699 -25.333 -3.5 -34s-6 -15.5 -11 -20.5s-12.333 -9.66699 -22 -14s-20.834 -8 -33.501 -11s-26 -5.33301 -40 -7s-27.667 -2.5 -41 -2.5c-44.667 0 -82.667 6 -114 18s-57 30.167 -77 54.5s-34.5 55.166 -43.5 92.499
s-13.5 81.333 -13.5 132v563h-135c-9.33301 0 -16.666 4.16699 -21.999 12.5s-8 20.833 -8 37.5c0 8.66699 0.666992 16.167 2 22.5s3.33301 11.666 6 15.999s5.83398 7.5 9.50098 9.5s7.83398 3 12.501 3h135v222c0 4 0.833008 7.66699 2.5 11
s4.83398 6.16602 9.50098 8.49902s10.834 4 18.501 5s17.167 1.5 28.5 1.5c12 0 21.833 -0.5 29.5 -1.5s13.667 -2.66699 18 -5s7.5 -5.16602 9.5 -8.49902s3 -7 3 -11v-222h482v263c0 4 0.833008 7.66699 2.5 11s4.83398 6 9.50098 8s10.834 3.66699 18.501 5
s17.167 2 28.5 2c12 0 21.833 -0.666992 29.5 -2s13.667 -3 18 -5s7.5 -4.66699 9.5 -8s3 -7 3 -11v-263h580c14.667 0 24.834 -3.83301 30.501 -11.5s8.5 -18.167 8.5 -31.5v-883c0 -4 -1 -7.66699 -3 -11s-5.16699 -6 -9.5 -8s-10.333 -3.66699 -18 -5s-17.5 -2 -29.5 -2
c-11.333 0 -20.833 0.666992 -28.5 2s-13.834 3 -18.501 5s-7.83398 4.66699 -9.50098 8s-2.5 7 -2.5 11v825h-500v-547c0 -68.667 9.83301 -121 29.5 -157s55.167 -54 106.5 -54c16 0 30.5 1.66699 43.5 5s24.5 7 34.5 11s18.667 7.66699 26 11s13.666 5 18.999 5
c3.33301 0 6.16602 -0.666992 8.49902 -2s4.33301 -3.83301 6 -7.5s3 -8.33398 4 -14.001s1.5 -12.834 1.5 -21.501c0 -14 -1 -25.333 -3 -34s-5.66699 -15.5 -11 -20.5s-12.666 -9.66699 -21.999 -14s-20.333 -8 -33 -11s-26 -5.33301 -40 -7s-27.667 -2.5 -41 -2.5
c-45.333 0 -83.666 6 -114.999 18s-56.833 30.167 -76.5 54.5s-34 55.166 -43 92.499s-13.5 81.333 -13.5 132v563h-482z" />
    <glyph glyph-name="f_uni1EC9.liga" unicode="f&#x1ec9;" horiz-adv-x="1057" 
d="M890 20c0 -4 -0.99707 -7.66797 -2.99707 -11.001s-5.16699 -6 -9.5 -8s-10.333 -3.66699 -18 -5s-17.167 -2 -28.5 -2c-12 0 -21.833 0.666992 -29.5 2s-13.667 3 -18 5s-7.5 4.66699 -9.5 8s-3 7 -3 11v825h-444v-825c0 -4 -1 -7.66699 -3 -11s-5.16699 -6 -9.5 -8
s-10.333 -3.66699 -18 -5s-17.5 -2 -29.5 -2c-11.333 0 -20.833 0.666992 -28.5 2s-13.834 3 -18.501 5s-7.83398 4.66699 -9.50098 8s-2.5 7 -2.5 11v825h-136c-9.33301 0 -16.5 4.16699 -21.5 12.5s-7.5 20.833 -7.5 37.5c0 8.66699 0.666992 16.167 2 22.5
s3.16602 11.666 5.49902 15.999s5.33301 7.5 9 9.5s7.83398 3 12.501 3h136v107c0 62.667 5.83301 116 17.5 160s29 79.833 52 107.5s51.5 47.834 85.5 60.501s73 19 117 19c25.333 0 48.666 -2.16699 69.999 -6.5s37.5 -9 48.5 -14s18.333 -9.33301 22 -13
s6.66699 -8.16699 9 -13.5s4 -11.5 5 -18.5s1.5 -14.833 1.5 -23.5c0 -15.333 -1.5 -26.666 -4.5 -33.999s-8.16699 -11 -15.5 -11c-5.33301 0 -12 1.66699 -20 5s-17.833 7 -29.5 11s-25 7.66699 -40 11s-31.833 5 -50.5 5c-55.333 0 -94 -19.5 -116 -58.5
s-33 -101.167 -33 -186.5v-107h526c13.333 0 22.833 -3.83301 28.5 -11.5s8.5 -17.5 8.5 -29.5v-885zM840.003 1080c-5.33301 0 -10.834 2.33496 -16.501 7.00195s-10.834 10.167 -15.501 16.5s-8.5 12.5 -11.5 18.5s-4.5 10.667 -4.5 14
c0 5.33301 2.66699 9.66602 8 12.999c12.667 6.66699 25 13.834 37 21.501s22.667 16 32 25s16.833 19.167 22.5 30.5s8.5 24.666 8.5 39.999c0 25.333 -8.33301 44.666 -25 57.999s-41.334 20 -74.001 20c-20 0 -37.167 -1.66699 -51.5 -5s-26.666 -6.83301 -36.999 -10.5
s-18.833 -7.16699 -25.5 -10.5s-11.667 -5 -15 -5c-5.33301 0 -9 2.33301 -11 7s-3 13 -3 25c0 15.333 0.833008 26.333 2.5 33s4.16699 11.667 7.5 15c4.66699 4.66699 19.334 11.667 44.001 21s59.334 14 104.001 14c63.333 0 110.333 -13.833 141 -41.5
s46 -64.167 46 -109.5c0 -32.667 -7.5 -61.334 -22.5 -86.001s-32 -45.167 -51 -61.5s-37.333 -28.666 -55 -36.999s-29.167 -12.5 -34.5 -12.5z" />
    <glyph glyph-name="f_uni1ECB.liga" unicode="f&#x1ecb;" horiz-adv-x="1057" 
d="M908 1229c0 -15.333 -1.16699 -28.166 -3.5 -38.499s-6.33301 -18.666 -12 -24.999s-13.5 -10.833 -23.5 -13.5s-22.667 -4 -38 -4s-28 1.33301 -38 4s-18 7.16699 -24 13.5s-10.167 14.666 -12.5 24.999s-3.5 23.166 -3.5 38.499s1.16699 28.166 3.5 38.499
s6.5 18.833 12.5 25.5s14 11.334 24 14.001s22.667 4 38 4s28 -1.33301 38 -4s17.833 -7.33398 23.5 -14.001s9.66699 -15.167 12 -25.5s3.5 -23.166 3.5 -38.499zM890 20c0 -4 -0.999023 -7.66895 -2.99902 -11.002s-5.16699 -6 -9.5 -8s-10.333 -3.66699 -18 -5
s-17.167 -2 -28.5 -2c-12 0 -21.833 0.666992 -29.5 2s-13.667 3 -18 5s-7.5 4.66699 -9.5 8s-3 7 -3 11v825h-444v-825c0 -4 -1 -7.66699 -3 -11s-5.16699 -6 -9.5 -8s-10.333 -3.66699 -18 -5s-17.5 -2 -29.5 -2c-11.333 0 -20.833 0.666992 -28.5 2s-13.834 3 -18.501 5
s-7.83398 4.66699 -9.50098 8s-2.5 7 -2.5 11v825h-136c-9.33301 0 -16.5 4.16699 -21.5 12.5s-7.5 20.833 -7.5 37.5c0 8.66699 0.666992 16.167 2 22.5s3.16602 11.666 5.49902 15.999s5.33301 7.5 9 9.5s7.83398 3 12.501 3h136v107c0 62.667 5.83301 116 17.5 160
s28.834 79.833 51.501 107.5s50.5 47.834 83.5 60.501s70.5 19 112.5 19c14.667 0 29 -0.666992 43 -2s26.833 -3.16602 38.5 -5.49902s21.667 -5 30 -8s14 -6 17 -9s5.5 -6.16699 7.5 -9.5s3.5 -7.16602 4.5 -11.499s1.83301 -9.5 2.5 -15.5s1 -13 1 -21
c0 -14.667 -1.5 -25.667 -4.5 -33s-8.16699 -11 -15.5 -11c-5.33301 0 -11 1.16699 -17 3.5s-13.833 5 -23.5 8s-21.5 5.83301 -35.5 8.5s-31.333 4 -52 4c-52 0 -88.667 -19.5 -110 -58.5s-32 -101.167 -32 -186.5v-107h526c13.333 0 22.833 -3.83301 28.5 -11.5
s8.5 -17.5 8.5 -29.5v-885zM750.001 -249.002c0 29.333 5.83301 50.333 17.5 63s31.834 19 60.501 19c29.333 0 49.666 -6.33301 60.999 -19s17 -33.667 17 -63c0 -28.667 -5.66699 -49.334 -17 -62.001s-31.666 -19 -60.999 -19c-28.667 0 -48.834 6.33301 -60.501 19
s-17.5 33.334 -17.5 62.001z" />
    <glyph glyph-name="f_f_uni1EC9.liga" unicode="ff&#x1ec9;" horiz-adv-x="1620" 
d="M1441.5 1c-8.33301 -4.66699 -24.1641 -7.00488 -47.4971 -7.00488s-39 2.33301 -47 7s-12 11 -12 19v825h-445v-825c0 -8 -4 -14.333 -12 -19s-23.667 -7 -47 -7s-39.166 2.33301 -47.499 7s-12.5 11 -12.5 19v825h-444v-825c0 -8 -4.16699 -14.333 -12.5 -19
s-24.166 -7 -47.499 -7s-39 2.33301 -47 7s-12 11 -12 19v825h-136c-19.333 0 -29 16.667 -29 50c0 34 9.66699 51 29 51h136v96c0 62.667 5.83301 116 17.5 160s29 79.833 52 107.5s51.5 47.834 85.5 60.501s73 19 117 19c29.333 0 54.666 -2.66699 75.999 -8
s38 -10.666 50 -15.999c11.333 -5.33301 19.166 -13.166 23.499 -23.499s6.5 -24.166 6.5 -41.499c0 -30 -6.66699 -45 -20 -45c-5.33301 0 -12 1.66699 -20 5s-17.833 7 -29.5 11s-25 7.66699 -40 11s-31.833 5 -50.5 5c-55.333 0 -94 -19.5 -116 -58.5
s-33 -101.167 -33 -186.5v-96h444v126c0 58 5.83301 107.667 17.5 149s28.5 75.166 50.5 101.499s48.667 45.833 80 58.5s66.666 19 105.999 19c19.333 0 38.333 -1.5 57 -4.5s33.667 -6.5 45 -10.5c9.33301 -3.33301 16 -9.66602 20 -18.999s6 -22.666 6 -39.999
c0 -30 -6.66699 -45 -20 -45c-5.33301 0 -11 0.833008 -17 2.5l-21.5 6c-8.33301 2.33301 -18.333 4.33301 -30 6s-25.834 2.5 -42.501 2.5c-46.667 0 -80.334 -18.5 -101.001 -55.5s-31 -93.833 -31 -170.5v-126h526c13.333 0 23 -3.83301 29 -11.5s9 -17.5 9 -29.5v-885
c0 -8 -4.16699 -14.333 -12.5 -19zM1405 1080c-5.33301 0 -10.834 2.33496 -16.501 7.00195s-10.834 10.167 -15.501 16.5s-8.5 12.5 -11.5 18.5s-4.5 10.667 -4.5 14c0 5.33301 2.66699 9.66602 8 12.999c12.667 6.66699 25 13.834 37 21.501s22.667 16 32 25
s16.833 19.167 22.5 30.5s8.5 24.666 8.5 39.999c0 25.333 -8.33301 44.666 -25 57.999s-41.334 20 -74.001 20c-20 0 -37.167 -1.66699 -51.5 -5s-26.666 -6.83301 -36.999 -10.5s-18.833 -7.16699 -25.5 -10.5s-11.667 -5 -15 -5c-5.33301 0 -9 2.33301 -11 7s-3 13 -3 25
c0 15.333 0.833008 26.333 2.5 33s4.16699 11.667 7.5 15c4.66699 4.66699 19.334 11.667 44.001 21s59.334 14 104.001 14c63.333 0 110.333 -13.833 141 -41.5s46 -64.167 46 -109.5c0 -32.667 -7.5 -61.334 -22.5 -86.001s-32 -45.167 -51 -61.5
s-37.333 -28.666 -55 -36.999s-29.167 -12.5 -34.5 -12.5z" />
    <glyph glyph-name="f_f_uni1ECB.liga" unicode="ff&#x1ecb;" horiz-adv-x="1620" 
d="M1472 1229c0 -15.333 -1.16699 -28.166 -3.5 -38.499s-6.5 -18.666 -12.5 -24.999s-14 -10.833 -24 -13.5s-22.667 -4 -38 -4s-28 1.33301 -38 4s-18 7.16699 -24 13.5s-10.167 14.666 -12.5 24.999s-3.5 23.166 -3.5 38.499s1.16699 28.166 3.5 38.499
s6.5 18.833 12.5 25.5s14 11.334 24 14.001s22.667 4 38 4s28 -1.33301 38 -4s18 -7.33398 24 -14.001s10.167 -15.167 12.5 -25.5s3.5 -23.166 3.5 -38.499zM1454 20c0 -4 -0.995117 -7.6709 -2.99512 -11.0039s-5.16699 -6 -9.5 -8s-10.333 -3.66699 -18 -5
s-17.5 -2 -29.5 -2c-11.333 0 -20.833 0.666992 -28.5 2s-13.834 3 -18.501 5s-7.83398 4.66699 -9.50098 8s-2.5 7 -2.5 11v825h-445v-825c0 -4 -1 -7.66699 -3 -11s-5.16699 -6 -9.5 -8s-10.333 -3.66699 -18 -5s-17.167 -2 -28.5 -2c-12 0 -21.833 0.666992 -29.5 2
s-13.667 3 -18 5s-7.5 4.66699 -9.5 8s-3 7 -3 11v825h-444v-825c0 -4 -1 -7.66699 -3 -11s-5.16699 -6 -9.5 -8s-10.5 -3.66699 -18.5 -5s-17.667 -2 -29 -2s-20.833 0.666992 -28.5 2s-13.834 3 -18.501 5s-7.83398 4.66699 -9.50098 8s-2.5 7 -2.5 11v825h-136
c-9.33301 0 -16.5 4.16699 -21.5 12.5s-7.5 20.833 -7.5 37.5c0 8.66699 0.666992 16.167 2 22.5s3.16602 11.666 5.49902 15.999s5.33301 7.5 9 9.5s7.83398 3 12.501 3h136v96c0 62.667 5.83301 116 17.5 160s29 79.833 52 107.5s51.5 47.834 85.5 60.501s73 19 117 19
c29.333 0 54.666 -2.66699 75.999 -8s36.5 -10 45.5 -14s15.333 -7.83301 19 -11.5s6.66699 -8.16699 9 -13.5s4 -11.5 5 -18.5s1.5 -14.833 1.5 -23.5c0 -15.333 -1.5 -26.666 -4.5 -33.999s-8.16699 -11 -15.5 -11c-5.33301 0 -12 1.66699 -20 5s-17.833 7 -29.5 11
s-25 7.66699 -40 11s-31.833 5 -50.5 5c-55.333 0 -94 -19.5 -116 -58.5s-33 -101.167 -33 -186.5v-96h444v107c0 62.667 6 116 18 160s29.167 79.833 51.5 107.5s50 47.834 83 60.501s70.5 19 112.5 19c14.667 0 29.167 -0.666992 43.5 -2s27.166 -3.16602 38.499 -5.49902
s21.166 -5 29.499 -8s14 -6 17 -9s5.5 -6.16699 7.5 -9.5s3.66699 -7.16602 5 -11.499s2.33301 -9.5 3 -15.5s1 -13 1 -21c0 -14.667 -1.5 -25.667 -4.5 -33s-8.16699 -11 -15.5 -11c-5.33301 0 -11.166 1.16699 -17.499 3.5s-14.166 5 -23.499 8s-21 5.83301 -35 8.5
s-31.333 4 -52 4c-52 0 -88.833 -19.5 -110.5 -58.5s-32.5 -101.167 -32.5 -186.5v-107h526c13.333 0 23 -3.83301 29 -11.5s9 -17.5 9 -29.5v-885zM1317 -249.004c0 29.333 5.83301 50.333 17.5 63s31.834 19 60.501 19c29.333 0 49.666 -6.33301 60.999 -19
s17 -33.667 17 -63c0 -28.667 -5.66699 -49.334 -17 -62.001s-31.666 -19 -60.999 -19c-28.667 0 -48.834 6.33301 -60.501 19s-17.5 33.334 -17.5 62.001z" />
    <glyph glyph-name="f_uni01D0.liga" unicode="f&#x1d0;" horiz-adv-x="1075" 
d="M908 20c0 -8 -3.99707 -14.332 -11.9971 -18.999s-23.667 -7 -47 -7s-39.166 2.33301 -47.499 7s-12.5 11 -12.5 19v825h-462v-825c0 -8 -4.16699 -14.333 -12.5 -19s-24.166 -7 -47.499 -7s-39 2.33301 -47 7s-12 11 -12 19v825h-136c-19.333 0 -29 16.667 -29 50
c0 34 9.66699 51 29 51h136v126c0 58 5.83301 107.667 17.5 149s28.5 75.166 50.5 101.499s48.667 45.833 80 58.5s66.666 19 105.999 19c19.333 0 38.166 -1.16699 56.499 -3.5s33.5 -6.16602 45.5 -11.499c11.333 -4.66699 18.5 -12 21.5 -22s4.5 -22.667 4.5 -38
c0 -29.333 -7 -44 -21 -44c-5.33301 0 -11.333 1 -18 3s-14.834 4.16699 -24.501 6.5s-19.334 4.16602 -29.001 5.49902s-22.834 2 -39.501 2c-46.667 0 -80.167 -18.5 -100.5 -55.5s-30.5 -93.833 -30.5 -170.5v-126h544c13.333 0 22.833 -3.83301 28.5 -11.5
s8.5 -17.5 8.5 -29.5v-885zM867.003 1176l141 197.997c7.33301 10.667 14.5 17.667 21.5 21s20.167 5 39.5 5c26 0 40.833 -4 44.5 -12s-0.5 -20.667 -12.5 -38l-165 -232c-6.66699 -8 -14.334 -13.667 -23.001 -17s-22.667 -5 -42 -5c-11.333 0 -20.833 0.333008 -28.5 1
s-14 1.83398 -19 3.50098s-9.16699 3.83398 -12.5 6.50098s-6.66602 6.33398 -9.99902 11.001l-165 232c-13.333 17.333 -18.333 30 -15 38s18 12 44 12c17.333 0 30 -1.66699 38 -5s15.667 -10.333 23 -21z" />
    <glyph glyph-name="f_uni0209.liga" unicode="f&#x209;" horiz-adv-x="1075" 
d="M908 20c0 -8 -3.99707 -14.3311 -11.9971 -18.998s-23.667 -7 -47 -7s-39.166 2.33301 -47.499 7s-12.5 11 -12.5 19v825h-462v-825c0 -8 -4.16699 -14.333 -12.5 -19s-24.166 -7 -47.499 -7s-39 2.33301 -47 7s-12 11 -12 19v825h-136c-19.333 0 -29 16.667 -29 50
c0 34 9.66699 51 29 51h136v126c0 58 5.83301 107.667 17.5 149s28.5 75.166 50.5 101.499s48.667 45.833 80 58.5s66.666 19 105.999 19c19.333 0 38.166 -1.16699 56.499 -3.5s33.5 -6.16602 45.5 -11.499c11.333 -4.66699 18.5 -11.834 21.5 -21.501s4.5 -22.5 4.5 -38.5
c0 -29.333 -7 -44 -21 -44c-5.33301 0 -11.333 1 -18 3s-14.834 4.16699 -24.501 6.5s-19.334 4.16602 -29.001 5.49902s-22.834 2 -39.501 2c-46.667 0 -80.167 -18.5 -100.5 -55.5s-30.5 -93.833 -30.5 -170.5v-126h544c13.333 0 22.833 -3.83301 28.5 -11.5
s8.5 -17.5 8.5 -29.5v-885zM862.003 1133c4.66699 -12 4.83496 -21.167 0.501953 -27.5s-16.833 -9.5 -37.5 -9.5c-10 0 -18.333 0.333008 -25 1s-12 2 -16 4s-7.5 4.83301 -10.5 8.5s-6.16699 8.83398 -9.5 15.501l-124 234c-6.66699 12 -5.83398 21.833 2.49902 29.5
s25.166 11.5 50.499 11.5c12.667 0 23 -0.5 31 -1.5s14.5 -2.66699 19.5 -5s9 -5.83301 12 -10.5s5.83301 -10.334 8.5 -17.001zM1062 1133c4.66699 -12 4.83496 -21.167 0.501953 -27.5s-16.833 -9.5 -37.5 -9.5c-10 0 -18.333 0.333008 -25 1s-12 2 -16 4
s-7.5 4.83301 -10.5 8.5s-6.16699 8.83398 -9.5 15.501l-124 234c-6.66699 12 -5.83398 21.833 2.49902 29.5s25.166 11.5 50.499 11.5c12.667 0 23 -0.5 31 -1.5s14.5 -2.66699 19.5 -5s9 -5.83301 12 -10.5s5.83301 -10.334 8.5 -17.001z" />
    <glyph glyph-name="f_uni020B.liga" unicode="f&#x20b;" horiz-adv-x="1075" 
d="M908 20c0 -8 -3.99707 -14.333 -11.9971 -19s-23.667 -7 -47 -7s-39 2.33301 -47 7s-12 11 -12 19v825h-463v-825c0 -8 -4.16699 -14.333 -12.5 -19s-24.166 -7 -47.499 -7s-39 2.33301 -47 7s-12 11 -12 19v825h-136c-19.333 0 -29 16.667 -29 50c0 34 9.66699 51 29 51
h136v126c0 58 5.83301 107.667 17.5 149s28.5 75.166 50.5 101.499s48.667 45.833 80 58.5s66.666 19 105.999 19c19.333 0 38.333 -1.33301 57 -4s33.667 -6.33398 45 -11.001c9.33301 -3.33301 16 -9.66602 20 -18.999s6 -22.666 6 -39.999c0 -30 -7 -45 -21 -45
c-5.33301 0 -10.833 0.833008 -16.5 2.5s-12.834 3.66699 -21.501 6s-18.834 4.33301 -30.501 6s-25.834 2.5 -42.501 2.5c-46.667 0 -80.167 -18.5 -100.5 -55.5s-30.5 -93.833 -30.5 -170.5v-126h544c13.333 0 22.833 -3.83301 28.5 -11.5s8.5 -17.5 8.5 -29.5v-885z
M992.003 1126c-3.33301 62 -16.835 106.336 -40.502 133.003s-55.834 40 -96.501 40c-24.667 0 -45.5 -4 -62.5 -12s-30.833 -19.5 -41.5 -34.5s-18.667 -33.167 -24 -54.5s-8.66602 -45.333 -9.99902 -72c0 -8.66699 -3 -14.834 -9 -18.501s-18.333 -5.5 -37 -5.5
c-17.333 0 -29 2.33301 -35 7s-9 11.667 -9 21c0 42 4.16699 79.167 12.5 111.5s21.5 59.833 39.5 82.5s41.5 39.834 70.5 51.501s64.167 17.5 105.5 17.5c76.667 0 133.834 -21.833 171.501 -65.5s56.5 -110.834 56.5 -201.501c0 -8.66699 -2.66699 -14.834 -8 -18.501
s-17.666 -5.5 -36.999 -5.5c-18.667 0 -31 2.16699 -37 6.5s-9 10.166 -9 17.499z" />
    <glyph glyph-name="f_uni1E2D.liga" unicode="f&#x1e2d;" horiz-adv-x="1057" 
d="M908 1229c0 -15.333 -1.16699 -28.166 -3.5 -38.499s-6.33301 -18.666 -12 -24.999s-13.5 -10.833 -23.5 -13.5s-22.667 -4 -38 -4s-28 1.33301 -38 4s-18 7.16699 -24 13.5s-10.167 14.666 -12.5 24.999s-3.5 23.166 -3.5 38.499s1.16699 28.166 3.5 38.499
s6.5 18.833 12.5 25.5s14 11.334 24 14.001s22.667 4 38 4s28 -1.33301 38 -4s17.833 -7.33398 23.5 -14.001s9.66699 -15.167 12 -25.5s3.5 -23.166 3.5 -38.499zM890 20c0 -4 -0.999023 -7.66895 -2.99902 -11.002s-5.16699 -6 -9.5 -8s-10.333 -3.66699 -18 -5
s-17.167 -2 -28.5 -2c-12 0 -21.833 0.666992 -29.5 2s-13.667 3 -18 5s-7.5 4.66699 -9.5 8s-3 7 -3 11v825h-444v-825c0 -4 -1 -7.66699 -3 -11s-5.16699 -6 -9.5 -8s-10.333 -3.66699 -18 -5s-17.5 -2 -29.5 -2c-11.333 0 -20.833 0.666992 -28.5 2s-13.834 3 -18.501 5
s-7.83398 4.66699 -9.50098 8s-2.5 7 -2.5 11v825h-136c-9.33301 0 -16.5 4.16699 -21.5 12.5s-7.5 20.833 -7.5 37.5c0 8.66699 0.666992 16.167 2 22.5s3.16602 11.666 5.49902 15.999s5.33301 7.5 9 9.5s7.83398 3 12.501 3h136v107c0 62.667 5.83301 116 17.5 160
s28.834 79.833 51.501 107.5s50.5 47.834 83.5 60.501s70.5 19 112.5 19c14.667 0 29 -0.666992 43 -2s26.833 -3.16602 38.5 -5.49902s21.667 -5 30 -8s14 -6 17 -9s5.5 -6.16699 7.5 -9.5s3.5 -7.16602 4.5 -11.499s1.83301 -9.5 2.5 -15.5s1 -13 1 -21
c0 -14.667 -1.5 -25.667 -4.5 -33s-8.16699 -11 -15.5 -11c-5.33301 0 -11 1.16699 -17 3.5s-13.833 5 -23.5 8s-21.5 5.83301 -35.5 8.5s-31.333 4 -52 4c-52 0 -88.667 -19.5 -110 -58.5s-32 -101.167 -32 -186.5v-107h526c13.333 0 22.833 -3.83301 28.5 -11.5
s8.5 -17.5 8.5 -29.5v-885zM1152 -199.002c0 -65.333 -16.5029 -115.167 -49.5029 -149.5s-76.5 -51.5 -130.5 -51.5c-24 0 -45.5 3.5 -64.5 10.5s-36.5 15.833 -52.5 26.5s-30.833 22.167 -44.5 34.5s-27.167 23.833 -40.5 34.5s-26.666 19.5 -39.999 26.5
s-27.666 10.5 -42.999 10.5c-29.333 0 -49.666 -10.833 -60.999 -32.5s-17 -49.834 -17 -84.501c0 -9.33301 -3 -16 -9 -20s-20.333 -6 -43 -6c-17.333 0 -29.333 2.83301 -36 8.5s-10 17.167 -10 34.5c0 60 15.5 108.333 46.5 145s75.167 55 132.5 55
c36 0 66.833 -7.5 92.5 -22.5s49 -31.333 70 -49l60.5 -49c19.333 -15 40.333 -22.5 63 -22.5c52 0 78 39 78 117c0 9.33301 2.83301 16 8.5 20s18.167 6 37.5 6c21.333 0 35.333 -2.66699 42 -8s10 -16.666 10 -33.999z" />
    <glyph glyph-name="f_uni1E2F.liga" unicode="f&#x1e2f;" horiz-adv-x="1075" 
d="M909 20c0 -4 -0.994141 -7.66406 -2.99414 -10.9971s-5.16699 -6 -9.5 -8s-10.333 -3.66699 -18 -5s-17.167 -2 -28.5 -2c-12 0 -21.833 0.666992 -29.5 2s-13.834 3 -18.501 5s-7.83398 4.66699 -9.50098 8s-2.5 7 -2.5 11v825h-463v-825c0 -4 -1 -7.66699 -3 -11
s-5.16699 -6 -9.5 -8s-10.5 -3.66699 -18.5 -5s-17.667 -2 -29 -2s-20.833 0.666992 -28.5 2s-13.834 3 -18.501 5s-7.83398 4.66699 -9.50098 8s-2.5 7 -2.5 11v825h-136c-9.33301 0 -16.5 4.16699 -21.5 12.5s-7.5 20.833 -7.5 37.5c0 8.66699 0.666992 16.167 2 22.5
s3.16602 11.666 5.49902 15.999s5.33301 7.5 9 9.5s7.83398 3 12.501 3h136v126c0 58 5.83301 107.667 17.5 149s28.5 75.166 50.5 101.499s48.667 45.833 80 58.5s66.666 19 105.999 19c10 0 19.833 -0.333008 29.5 -1s18.834 -1.66699 27.501 -3s16.834 -3 24.501 -5
s14.167 -4 19.5 -6s9.66602 -4.5 12.999 -7.5s6 -6.83301 8 -11.5s3.5 -10.334 4.5 -17.001s1.5 -14.334 1.5 -23.001c0 -15.333 -1.66699 -26.666 -5 -33.999s-8.66602 -11 -15.999 -11c-5.33301 0 -10.833 0.833008 -16.5 2.5s-12.834 3.66699 -21.501 6
s-18.834 4.33301 -30.501 6s-25.834 2.5 -42.501 2.5c-46.667 0 -80.167 -18.5 -100.5 -55.5s-30.5 -93.833 -30.5 -170.5v-126h545c13.333 0 22.833 -3.83301 28.5 -11.5s8.5 -17.5 8.5 -29.5v-885zM649.006 1229c0 14.667 1.16699 27 3.5 37s6.33301 18 12 24
s13.334 10.333 23.001 13s21.5 4 35.5 4c14.667 0 26.667 -1.33301 36 -4s16.833 -7 22.5 -13s9.66699 -14 12 -24s3.5 -22.333 3.5 -37c0 -14 -1.16699 -26 -3.5 -36s-6.33301 -18.167 -12 -24.5s-13.167 -10.833 -22.5 -13.5s-21.333 -4 -36 -4
c-14 0 -25.833 1.33301 -35.5 4s-17.334 7.16699 -23.001 13.5s-9.66699 14.5 -12 24.5s-3.5 22 -3.5 36zM927.006 1229c0 14.667 1.16699 27 3.5 37s6.33301 18 12 24s13.334 10.333 23.001 13s21.5 4 35.5 4c14.667 0 26.667 -1.33301 36 -4s16.833 -7 22.5 -13
s9.66699 -14 12 -24s3.5 -22.333 3.5 -37c0 -14 -1.16699 -26 -3.5 -36s-6.33301 -18.167 -12 -24.5s-13.167 -10.833 -22.5 -13.5s-21.333 -4 -36 -4c-14 0 -25.833 1.33301 -35.5 4s-17.334 7.16699 -23.001 13.5s-9.66699 14.5 -12 24.5s-3.5 22 -3.5 36zM981.006 1629
c4 6.66699 8.33398 12.334 13.001 17.001s10.167 8.16699 16.5 10.5s14 4 23 5s19.833 1.5 32.5 1.5s23 -1 31 -3s13.667 -4.83301 17 -8.5s4.5 -8 3.5 -13s-3.83301 -10.5 -8.5 -16.5l-174 -234c-4.66699 -6.66699 -8.83398 -11.834 -12.501 -15.501
s-7.83398 -6.5 -12.501 -8.5s-10.334 -3.33301 -17.001 -4s-15 -1 -25 -1s-18.167 0.833008 -24.5 2.5s-10.666 4 -12.999 7s-3.16602 6.83301 -2.49902 11.5s3 10 7 16z" />
    <glyph glyph-name="f_uni0268.liga" unicode="f&#x268;" horiz-adv-x="1077" 
d="M890 20c0 -8 -4.00293 -14.334 -12.0029 -19.001s-23.667 -7 -47 -7s-39.166 2.33301 -47.499 7s-12.5 11 -12.5 19v446h-208c-9.33301 0 -16.666 4.16699 -21.999 12.5s-8 20.833 -8 37.5s2.66699 29.167 8 37.5s12.666 12.5 21.999 12.5h208v279h-444v-825
c0 -8 -4.16699 -14.333 -12.5 -19s-24.166 -7 -47.499 -7s-39 2.33301 -47 7s-12 11 -12 19v825h-136c-19.333 0 -29 16.667 -29 50c0 34 9.66699 51 29 51h136v107c0 62.667 5.83301 116 17.5 160s28.834 79.833 51.501 107.5s50.5 47.834 83.5 60.501s70.5 19 112.5 19
c29.333 0 56.5 -2.5 81.5 -7.5s41.167 -11.167 48.5 -18.5c4.66699 -4.66699 8.16699 -11.167 10.5 -19.5s3.5 -20.5 3.5 -36.5c0 -29.333 -6.66699 -44 -20 -44c-5.33301 0 -11 1.16699 -17 3.5s-13.833 5 -23.5 8s-21.5 5.83301 -35.5 8.5s-31.333 4 -52 4
c-52 0 -88.667 -19.5 -110 -58.5s-32 -101.167 -32 -186.5v-107h526c13.333 0 22.833 -3.83301 28.5 -11.5s8.5 -17.5 8.5 -29.5v-339h207c20 0 30 -16.667 30 -50s-10 -50 -30 -50h-207v-446zM907.997 1229c0 -30.667 -5.16699 -51.8311 -15.5 -63.498
s-30.833 -17.5 -61.5 -17.5c-15.333 0 -28 1.33301 -38 4s-18 7.16699 -24 13.5s-10.167 14.666 -12.5 24.999s-3.5 23.166 -3.5 38.499s1.16699 28.166 3.5 38.499s6.5 18.833 12.5 25.5s14 11.334 24 14.001s22.667 4 38 4c30.667 0 51.167 -6 61.5 -18
s15.5 -33.333 15.5 -64z" />
    <glyph glyph-name="f_f_uni01D0.liga" unicode="ff&#x1d0;" horiz-adv-x="1638" 
d="M1472 20c0 -8 -4.16211 -14.335 -12.4951 -19.002s-24.166 -7 -47.499 -7s-39 2.33301 -47 7s-12 11 -12 19v825h-463v-825c0 -8 -4 -14.333 -12 -19s-23.667 -7 -47 -7s-39.166 2.33301 -47.499 7s-12.5 11 -12.5 19v825h-444v-825c0 -8 -4.16699 -14.333 -12.5 -19
s-24.166 -7 -47.499 -7s-39 2.33301 -47 7s-12 11 -12 19v825h-136c-19.333 0 -29 16.667 -29 50c0 34 9.66699 51 29 51h136v96c0 62.667 5.83301 116 17.5 160s29 79.833 52 107.5s51.5 47.834 85.5 60.501s73 19 117 19c29.333 0 54.666 -2.66699 75.999 -8
s38 -10.666 50 -15.999c11.333 -5.33301 19.166 -13.166 23.499 -23.499s6.5 -24.166 6.5 -41.499c0 -30 -6.66699 -45 -20 -45c-5.33301 0 -12 1.66699 -20 5s-17.833 7 -29.5 11s-25 7.66699 -40 11s-31.833 5 -50.5 5c-55.333 0 -94 -19.5 -116 -58.5
s-33 -101.167 -33 -186.5v-96h444v126c0 58 5.83301 107.667 17.5 149s28.5 75.166 50.5 101.499s48.667 45.833 80 58.5s66.666 19 105.999 19c19.333 0 39.166 -1.5 59.499 -4.5s36.5 -7.16699 48.5 -12.5c11.333 -4.66699 19 -12.334 23 -23.001s6 -24.667 6 -42
c0 -29.333 -6.66699 -44 -20 -44c-5.33301 0 -11.333 1.16699 -18 3.5s-14.834 5 -24.501 8s-20.834 5.83301 -33.501 8.5s-27.334 4 -44.001 4c-46.667 0 -80.334 -18.5 -101.001 -55.5s-31 -93.833 -31 -170.5v-126h544c13.333 0 23 -3.83301 29 -11.5s9 -17.5 9 -29.5
v-885zM1431 1176l140.998 197.997c7.33301 10.667 14.5 17.667 21.5 21s20.167 5 39.5 5c26 0 40.833 -4 44.5 -12s-0.833008 -20.667 -13.5 -38l-165 -232c-6 -8 -13.333 -13.667 -22 -17s-22.667 -5 -42 -5c-12 0 -21.833 0.333008 -29.5 1s-14 1.83398 -19 3.50098
s-9.16699 3.83398 -12.5 6.50098s-6.66602 6.33398 -9.99902 11.001l-165 232c-13.333 17.333 -18.166 30 -14.499 38s18.5 12 44.5 12c17.333 0 30 -1.66699 38 -5s15.667 -10.333 23 -21z" />
    <glyph glyph-name="f_f_uni0209.liga" unicode="ff&#x209;" horiz-adv-x="1638" 
d="M1472 20c0 -8 -4.16211 -14.335 -12.4951 -19.002s-24.166 -7 -47.499 -7s-39 2.33301 -47 7s-12 11 -12 19v825h-463v-825c0 -8 -4 -14.333 -12 -19s-23.667 -7 -47 -7s-39.166 2.33301 -47.499 7s-12.5 11 -12.5 19v825h-444v-825c0 -8 -4.16699 -14.333 -12.5 -19
s-24.166 -7 -47.499 -7s-39 2.33301 -47 7s-12 11 -12 19v825h-136c-19.333 0 -29 16.667 -29 50c0 34 9.66699 51 29 51h136v96c0 62.667 5.83301 116 17.5 160s29 79.833 52 107.5s51.5 47.834 85.5 60.501s73 19 117 19c29.333 0 54.666 -2.66699 75.999 -8
s38 -10.666 50 -15.999c11.333 -5.33301 19.166 -13.166 23.499 -23.499s6.5 -24.166 6.5 -41.499c0 -30 -6.66699 -45 -20 -45c-5.33301 0 -12 1.66699 -20 5s-17.833 7 -29.5 11s-25 7.66699 -40 11s-31.833 5 -50.5 5c-55.333 0 -94 -19.5 -116 -58.5
s-33 -101.167 -33 -186.5v-96h444v126c0 58 5.83301 107.667 17.5 149s28.5 75.166 50.5 101.499s48.667 45.833 80 58.5s66.666 19 105.999 19c19.333 0 39.166 -1.5 59.499 -4.5s36.5 -7.16699 48.5 -12.5c11.333 -4.66699 19 -12.334 23 -23.001s6 -24.667 6 -42
c0 -29.333 -6.66699 -44 -20 -44c-5.33301 0 -11.333 1.16699 -18 3.5s-14.834 5 -24.501 8s-20.834 5.83301 -33.501 8.5s-27.334 4 -44.001 4c-46.667 0 -80.334 -18.5 -101.001 -55.5s-31 -93.833 -31 -170.5v-126h544c13.333 0 23 -3.83301 29 -11.5s9 -17.5 9 -29.5
v-885zM1446 1133c4.66699 -12 4.83496 -21.167 0.501953 -27.5s-16.833 -9.5 -37.5 -9.5c-10 0 -18.333 0.333008 -25 1s-12 2 -16 4s-7.5 4.83301 -10.5 8.5s-6.16699 8.83398 -9.5 15.501l-124 234c-6.66699 12 -5.83398 21.833 2.49902 29.5s25.166 11.5 50.499 11.5
c12.667 0 23 -0.5 31 -1.5s14.5 -2.66699 19.5 -5s9 -5.83301 12 -10.5s5.83301 -10.334 8.5 -17.001zM1646.01 1133c4.66699 -12 4.83496 -21.167 0.501953 -27.5s-16.833 -9.5 -37.5 -9.5c-10 0 -18.333 0.333008 -25 1s-12 2 -16 4s-7.5 4.83301 -10.5 8.5
s-6.16699 8.83398 -9.5 15.501l-124 234c-6.66699 12 -5.83398 21.833 2.49902 29.5s25.166 11.5 50.499 11.5c12.667 0 23 -0.5 31 -1.5s14.5 -2.66699 19.5 -5s9 -5.83301 12 -10.5s5.83301 -10.334 8.5 -17.001z" />
    <glyph glyph-name="f_f_uni020B.liga" unicode="ff&#x20b;" horiz-adv-x="1639" 
d="M1472 20c0 -8 -3.99805 -14.3369 -11.998 -19.0039s-23.667 -7 -47 -7s-39.166 2.33301 -47.499 7s-12.5 11 -12.5 19v825h-463v-825c0 -8 -4 -14.333 -12 -19s-23.667 -7 -47 -7s-39.166 2.33301 -47.499 7s-12.5 11 -12.5 19v825h-444v-825
c0 -8 -4.16699 -14.333 -12.5 -19s-24.166 -7 -47.499 -7s-39 2.33301 -47 7s-12 11 -12 19v825h-136c-19.333 0 -29 16.667 -29 50c0 34 9.66699 51 29 51h136v96c0 62.667 5.83301 116 17.5 160s29 79.833 52 107.5s51.5 47.834 85.5 60.501s73 19 117 19
c29.333 0 54.666 -2.66699 75.999 -8s38 -10.666 50 -15.999c11.333 -5.33301 19.166 -13.166 23.499 -23.499s6.5 -24.166 6.5 -41.499c0 -30 -6.66699 -45 -20 -45c-5.33301 0 -12 1.66699 -20 5s-17.833 7 -29.5 11s-25 7.66699 -40 11s-31.833 5 -50.5 5
c-55.333 0 -94 -19.5 -116 -58.5s-33 -101.167 -33 -186.5v-96h444v126c0 58 5.83301 107.667 17.5 149s28.5 75.166 50.5 101.499s48.667 45.833 80 58.5s66.666 19 105.999 19c19.333 0 38.333 -1.33301 57 -4s33.667 -6.33398 45 -11.001
c9.33301 -3.33301 16 -9.66602 20 -18.999s6 -22.666 6 -39.999c0 -30 -6.66699 -45 -20 -45c-5.33301 0 -11 0.833008 -17 2.5l-21.5 6c-8.33301 2.33301 -18.333 4.33301 -30 6s-25.834 2.5 -42.501 2.5c-46.667 0 -80.334 -18.5 -101.001 -55.5s-31 -93.833 -31 -170.5
v-126h545c13.333 0 22.833 -3.83301 28.5 -11.5s8.5 -17.5 8.5 -29.5v-885zM1556 1128c-3.33301 62 -17.001 106.336 -41.001 133.003s-56.333 40 -97 40c-24.667 0 -45.334 -4 -62.001 -12s-30.334 -19.5 -41.001 -34.5s-18.667 -33.167 -24 -54.5
s-8.66602 -45.333 -9.99902 -72c0 -8.66699 -3 -14.834 -9 -18.501s-18.333 -5.5 -37 -5.5c-17.333 0 -29.166 2.33301 -35.499 7s-9.5 11.667 -9.5 21c0 42 4.16699 79.167 12.5 111.5s21.5 59.833 39.5 82.5s41.5 39.834 70.5 51.501s64.167 17.5 105.5 17.5
c76.667 0 133.834 -21.833 171.501 -65.5s56.5 -110.834 56.5 -201.501c0 -8.66699 -2.5 -14.834 -7.5 -18.501s-17.167 -5.5 -36.5 -5.5c-18.667 0 -31 2.16699 -37 6.5s-9 10.166 -9 17.499z" />
    <glyph glyph-name="f_f_uni1E2D.liga" unicode="ff&#x1e2d;" horiz-adv-x="1620" 
d="M1472 1229c0 -15.333 -1.16699 -28.166 -3.5 -38.499s-6.5 -18.666 -12.5 -24.999s-14 -10.833 -24 -13.5s-22.667 -4 -38 -4s-28 1.33301 -38 4s-18 7.16699 -24 13.5s-10.167 14.666 -12.5 24.999s-3.5 23.166 -3.5 38.499s1.16699 28.166 3.5 38.499
s6.5 18.833 12.5 25.5s14 11.334 24 14.001s22.667 4 38 4s28 -1.33301 38 -4s18 -7.33398 24 -14.001s10.167 -15.167 12.5 -25.5s3.5 -23.166 3.5 -38.499zM1454 20c0 -4 -0.995117 -7.6709 -2.99512 -11.0039s-5.16699 -6 -9.5 -8s-10.333 -3.66699 -18 -5
s-17.5 -2 -29.5 -2c-11.333 0 -20.833 0.666992 -28.5 2s-13.834 3 -18.501 5s-7.83398 4.66699 -9.50098 8s-2.5 7 -2.5 11v825h-445v-825c0 -4 -1 -7.66699 -3 -11s-5.16699 -6 -9.5 -8s-10.333 -3.66699 -18 -5s-17.167 -2 -28.5 -2c-12 0 -21.833 0.666992 -29.5 2
s-13.667 3 -18 5s-7.5 4.66699 -9.5 8s-3 7 -3 11v825h-444v-825c0 -4 -1 -7.66699 -3 -11s-5.16699 -6 -9.5 -8s-10.5 -3.66699 -18.5 -5s-17.667 -2 -29 -2s-20.833 0.666992 -28.5 2s-13.834 3 -18.501 5s-7.83398 4.66699 -9.50098 8s-2.5 7 -2.5 11v825h-136
c-9.33301 0 -16.5 4.16699 -21.5 12.5s-7.5 20.833 -7.5 37.5c0 8.66699 0.666992 16.167 2 22.5s3.16602 11.666 5.49902 15.999s5.33301 7.5 9 9.5s7.83398 3 12.501 3h136v96c0 62.667 5.83301 116 17.5 160s29 79.833 52 107.5s51.5 47.834 85.5 60.501s73 19 117 19
c29.333 0 54.666 -2.66699 75.999 -8s36.5 -10 45.5 -14s15.333 -7.83301 19 -11.5s6.66699 -8.16699 9 -13.5s4 -11.5 5 -18.5s1.5 -14.833 1.5 -23.5c0 -15.333 -1.5 -26.666 -4.5 -33.999s-8.16699 -11 -15.5 -11c-5.33301 0 -12 1.66699 -20 5s-17.833 7 -29.5 11
s-25 7.66699 -40 11s-31.833 5 -50.5 5c-55.333 0 -94 -19.5 -116 -58.5s-33 -101.167 -33 -186.5v-96h444v107c0 62.667 6 116 18 160s29.167 79.833 51.5 107.5s50 47.834 83 60.501s70.5 19 112.5 19c14.667 0 29.167 -0.666992 43.5 -2s27.166 -3.16602 38.499 -5.49902
s21.166 -5 29.499 -8s14 -6 17 -9s5.5 -6.16699 7.5 -9.5s3.66699 -7.16602 5 -11.499s2.33301 -9.5 3 -15.5s1 -13 1 -21c0 -14.667 -1.5 -25.667 -4.5 -33s-8.16699 -11 -15.5 -11c-5.33301 0 -11.166 1.16699 -17.499 3.5s-14.166 5 -23.499 8s-21 5.83301 -35 8.5
s-31.333 4 -52 4c-52 0 -88.833 -19.5 -110.5 -58.5s-32.5 -101.167 -32.5 -186.5v-107h526c13.333 0 23 -3.83301 29 -11.5s9 -17.5 9 -29.5v-885zM1716 -199.004c0 -65.333 -16.5029 -115.167 -49.5029 -149.5s-76.5 -51.5 -130.5 -51.5c-24 0 -45.5 3.5 -64.5 10.5
s-36.5 15.833 -52.5 26.5s-30.833 22.167 -44.5 34.5s-27.167 23.833 -40.5 34.5s-26.666 19.5 -39.999 26.5s-27.666 10.5 -42.999 10.5c-29.333 0 -49.666 -10.833 -60.999 -32.5s-17 -49.834 -17 -84.501c0 -9.33301 -3 -16 -9 -20s-20.333 -6 -43 -6
c-17.333 0 -29.333 2.83301 -36 8.5s-10 17.167 -10 34.5c0 60 15.5 108.333 46.5 145s75.167 55 132.5 55c36 0 66.833 -7.5 92.5 -22.5s49 -31.333 70 -49l60.5 -49c19.333 -15 40.333 -22.5 63 -22.5c52 0 78 39 78 117c0 9.33301 2.83301 16 8.5 20s18.167 6 37.5 6
c21.333 0 35.333 -2.66699 42 -8s10 -16.666 10 -33.999z" />
    <glyph glyph-name="f_f_uni1E2F.liga" unicode="ff&#x1e2f;" horiz-adv-x="1639" 
d="M1472 20c0 -4 -0.994141 -7.66602 -2.99414 -10.999s-5.16699 -6 -9.5 -8s-10.333 -3.66699 -18 -5s-17.167 -2 -28.5 -2c-12 0 -21.833 0.666992 -29.5 2s-13.667 3 -18 5s-7.5 4.66699 -9.5 8s-3 7 -3 11v825h-463v-825c0 -4 -1 -7.66699 -3 -11s-5.16699 -6 -9.5 -8
s-10.333 -3.66699 -18 -5s-17.167 -2 -28.5 -2c-12 0 -21.833 0.666992 -29.5 2s-13.667 3 -18 5s-7.5 4.66699 -9.5 8s-3 7 -3 11v825h-444v-825c0 -4 -1 -7.66699 -3 -11s-5.16699 -6 -9.5 -8s-10.333 -3.66699 -18 -5s-17.5 -2 -29.5 -2
c-11.333 0 -20.833 0.666992 -28.5 2s-13.834 3 -18.501 5s-7.83398 4.66699 -9.50098 8s-2.5 7 -2.5 11v825h-136c-9.33301 0 -16.5 4.16699 -21.5 12.5s-7.5 20.833 -7.5 37.5c0 8.66699 0.666992 16.167 2 22.5s3.16602 11.666 5.49902 15.999s5.33301 7.5 9 9.5
s7.83398 3 12.501 3h136v96c0 62.667 5.83301 116 17.5 160s29 79.833 52 107.5s51.5 47.834 85.5 60.501s73 19 117 19c29.333 0 54.666 -2.66699 75.999 -8s36.5 -10 45.5 -14s15.333 -7.83301 19 -11.5s6.66699 -8.16699 9 -13.5s4 -11.5 5 -18.5s1.5 -14.833 1.5 -23.5
c0 -15.333 -1.5 -26.666 -4.5 -33.999s-8.16699 -11 -15.5 -11c-5.33301 0 -12 1.66699 -20 5s-17.833 7 -29.5 11s-25 7.66699 -40 11s-31.833 5 -50.5 5c-55.333 0 -94 -19.5 -116 -58.5s-33 -101.167 -33 -186.5v-96h444v126c0 58 5.83301 107.667 17.5 149
s28.5 75.166 50.5 101.499s48.667 45.833 80 58.5s66.666 19 105.999 19c19.333 0 38.333 -1.33301 57 -4s32 -5.66699 40 -9s13.667 -6.5 17 -9.5s6 -6.83301 8 -11.5s3.5 -10.334 4.5 -17.001s1.5 -14.334 1.5 -23.001c0 -15.333 -1.5 -26.666 -4.5 -33.999
s-8.16699 -11 -15.5 -11c-5.33301 0 -11 0.833008 -17 2.5l-21.5 6c-8.33301 2.33301 -18.333 4.33301 -30 6s-25.834 2.5 -42.501 2.5c-46.667 0 -80.334 -18.5 -101.001 -55.5s-31 -93.833 -31 -170.5v-126h545c13.333 0 22.833 -3.83301 28.5 -11.5s8.5 -17.5 8.5 -29.5
v-885zM1213.01 1229c0 14.667 1.16699 27 3.5 37s6.33301 18 12 24s13.167 10.333 22.5 13s21.333 4 36 4c14 0 25.833 -1.33301 35.5 -4s17.334 -7 23.001 -13s9.66699 -14 12 -24s3.5 -22.333 3.5 -37c0 -14 -1.16699 -26 -3.5 -36s-6.33301 -18.167 -12 -24.5
s-13.334 -10.833 -23.001 -13.5s-21.5 -4 -35.5 -4c-14.667 0 -26.667 1.33301 -36 4s-16.833 7.16699 -22.5 13.5s-9.66699 14.5 -12 24.5s-3.5 22 -3.5 36zM1491.01 1229c0 14.667 1.16699 27 3.5 37s6.33301 18 12 24s13.167 10.333 22.5 13s21.333 4 36 4
c14 0 25.833 -1.33301 35.5 -4s17.334 -7 23.001 -13s9.66699 -14 12 -24s3.5 -22.333 3.5 -37c0 -14 -1.16699 -26 -3.5 -36s-6.33301 -18.167 -12 -24.5s-13.334 -10.833 -23.001 -13.5s-21.5 -4 -35.5 -4c-14.667 0 -26.667 1.33301 -36 4s-16.833 7.16699 -22.5 13.5
s-9.66699 14.5 -12 24.5s-3.5 22 -3.5 36zM1537.01 1629c4 6.66699 8.33398 12.334 13.001 17.001s10.167 8.16699 16.5 10.5s14 4 23 5s19.833 1.5 32.5 1.5s23 -1 31 -3s13.667 -4.83301 17 -8.5s4.5 -8 3.5 -13s-3.83301 -10.5 -8.5 -16.5l-174 -234
c-4.66699 -6.66699 -8.83398 -11.834 -12.501 -15.501s-7.83398 -6.5 -12.501 -8.5s-10.334 -3.33301 -17.001 -4s-15 -1 -25 -1s-18.167 0.833008 -24.5 2.5s-10.666 4 -12.999 7s-3.16602 6.83301 -2.49902 11.5s3 10 7 16z" />
    <glyph glyph-name="f_f_uni0268.liga" unicode="ff&#x268;" horiz-adv-x="1642" 
d="M1454 20c0 -8 -4.1709 -14.3379 -12.5039 -19.0049s-24.166 -7 -47.499 -7s-39 2.33301 -47 7s-12 11 -12 19v446h-207c-9.33301 0 -16.666 4.16699 -21.999 12.5s-8 20.833 -8 37.5s2.66699 29.167 8 37.5s12.666 12.5 21.999 12.5h207v279h-445v-825
c0 -8 -4 -14.333 -12 -19s-23.667 -7 -47 -7s-39.166 2.33301 -47.499 7s-12.5 11 -12.5 19v825h-444v-825c0 -8 -4.16699 -14.333 -12.5 -19s-24.166 -7 -47.499 -7s-39 2.33301 -47 7s-12 11 -12 19v825h-136c-19.333 0 -29 16.667 -29 50c0 34 9.66699 51 29 51h136v96
c0 62.667 5.83301 116 17.5 160s29 79.833 52 107.5s51.5 47.834 85.5 60.501s73 19 117 19c29.333 0 54.666 -2.66699 75.999 -8s38 -10.666 50 -15.999c11.333 -5.33301 19.166 -13.166 23.499 -23.499s6.5 -24.166 6.5 -41.499c0 -30 -6.66699 -45 -20 -45
c-5.33301 0 -12 1.66699 -20 5s-17.833 7 -29.5 11s-25 7.66699 -40 11s-31.833 5 -50.5 5c-55.333 0 -94 -19.5 -116 -58.5s-33 -101.167 -33 -186.5v-96h444v107c0 62.667 6 116 18 160s29.167 79.833 51.5 107.5s50 47.834 83 60.501s70.5 19 112.5 19
c30 0 57.333 -2.5 82 -7.5s40.667 -11.167 48 -18.5c4.66699 -4.66699 8.33398 -11.167 11.001 -19.5s4 -20.5 4 -36.5c0 -29.333 -6.66699 -44 -20 -44c-5.33301 0 -11.166 1.16699 -17.499 3.5s-14.166 5 -23.499 8s-21 5.83301 -35 8.5s-31.333 4 -52 4
c-52 0 -88.833 -19.5 -110.5 -58.5s-32.5 -101.167 -32.5 -186.5v-107h526c13.333 0 23 -3.83301 29 -11.5s9 -17.5 9 -29.5v-339h208c20 0 30 -16.667 30 -50s-10 -50 -30 -50h-208v-446zM1472 1229c0 -30.667 -5.33301 -51.834 -16 -63.501s-31.334 -17.5 -62.001 -17.5
s-51.334 5.83301 -62.001 17.5s-16 32.834 -16 63.501s5.33301 52 16 64s31.334 18 62.001 18s51.334 -6 62.001 -18s16 -33.333 16 -64z" />
    <glyph glyph-name="t_uni01D0.liga" unicode="t&#x1d0;" horiz-adv-x="1109" 
d="M903 946c15.333 0 25.6621 -3.8291 30.9951 -11.4961s8 -18.167 8 -31.5v-883c0 -4 -1 -7.66699 -3 -11s-5.16699 -6 -9.5 -8s-10.333 -3.66699 -18 -5s-17.167 -2 -28.5 -2c-12 0 -21.833 0.666992 -29.5 2s-13.667 3 -18 5s-7.5 4.66699 -9.5 8s-3 7 -3 11v825h-500
v-547c0 -68.667 9.83301 -121 29.5 -157s55.5 -54 107.5 -54c16 0 30.5 1.66699 43.5 5s24.5 7 34.5 11s18.5 7.66699 25.5 11s13.167 5 18.5 5c3.33301 0 6.33301 -0.666992 9 -2s4.83398 -3.83301 6.50098 -7.5s3 -8.33398 4 -14.001s1.5 -12.834 1.5 -21.501
c0 -14 -1.16699 -25.333 -3.5 -34s-6 -15.5 -11 -20.5s-12.333 -9.66699 -22 -14s-20.834 -8 -33.501 -11s-26 -5.33301 -40 -7s-27.667 -2.5 -41 -2.5c-44.667 0 -82.667 6 -114 18s-57 30.167 -77 54.5s-34.5 55.166 -43.5 92.499s-13.5 81.333 -13.5 132v563h-135
c-9.33301 0 -16.666 4.16699 -21.999 12.5s-8 20.833 -8 37.5c0 8.66699 0.666992 16.167 2 22.5s3.33301 11.666 6 15.999s5.83398 7.5 9.50098 9.5s7.83398 3 12.501 3h135v222c0 4 0.833008 7.66699 2.5 11s4.83398 6.16602 9.50098 8.49902s10.834 4 18.501 5
s17.167 1.5 28.5 1.5c12 0 21.833 -0.5 29.5 -1.5s13.667 -2.66699 18 -5s7.5 -5.16602 9.5 -8.49902s3 -7 3 -11v-222h580zM1025 1374c4 4.66699 7.66504 8.66699 10.998 12s7.33301 6 12 8s10 3.5 16 4.5s13.333 1.5 22 1.5c12.667 0 22.834 -1 30.501 -3s12.667 -5 15 -9
s2.33301 -9.16699 0 -15.5s-6.83301 -13.833 -13.5 -22.5l-169 -232c-3.33301 -4.66699 -6.83301 -8.5 -10.5 -11.5s-8.16699 -5.16699 -13.5 -6.5s-11.833 -2.33301 -19.5 -3s-17.167 -1 -28.5 -1c-10 0 -18.333 0.333008 -25 1s-12.5 1.83398 -17.5 3.50098
s-9.16699 4 -12.5 7s-6.66602 6.5 -9.99902 10.5l-169 232c-6 8 -10.167 15.167 -12.5 21.5s-2.33301 11.666 0 15.999s7 7.5 14 9.5s17.167 3 30.5 3c10 0 18 -0.5 24 -1.5s11.167 -2.5 15.5 -4.5s8 -4.66699 11 -8l10.5 -12l144 -199z" />
    <glyph glyph-name="t_uni0209.liga" unicode="t&#x209;" horiz-adv-x="1109" 
d="M903 946c15.333 0 25.6621 -3.8291 30.9951 -11.4961s8 -18.167 8 -31.5v-883c0 -4 -1 -7.66699 -3 -11s-5.16699 -6 -9.5 -8s-10.333 -3.66699 -18 -5s-17.167 -2 -28.5 -2c-12 0 -21.833 0.666992 -29.5 2s-13.667 3 -18 5s-7.5 4.66699 -9.5 8s-3 7 -3 11v825h-500
v-547c0 -68.667 9.83301 -121 29.5 -157s55.5 -54 107.5 -54c16 0 30.5 1.66699 43.5 5s24.5 7 34.5 11s18.5 7.66699 25.5 11s13.167 5 18.5 5c3.33301 0 6.33301 -0.666992 9 -2s4.83398 -3.83301 6.50098 -7.5s3 -8.33398 4 -14.001s1.5 -12.834 1.5 -21.501
c0 -14 -1.16699 -25.333 -3.5 -34s-6 -15.5 -11 -20.5s-12.333 -9.66699 -22 -14s-20.834 -8 -33.501 -11s-26 -5.33301 -40 -7s-27.667 -2.5 -41 -2.5c-44.667 0 -82.667 6 -114 18s-57 30.167 -77 54.5s-34.5 55.166 -43.5 92.499s-13.5 81.333 -13.5 132v563h-135
c-9.33301 0 -16.666 4.16699 -21.999 12.5s-8 20.833 -8 37.5c0 8.66699 0.666992 16.167 2 22.5s3.33301 11.666 6 15.999s5.83398 7.5 9.50098 9.5s7.83398 3 12.501 3h135v222c0 4 0.833008 7.66699 2.5 11s4.83398 6.16602 9.50098 8.49902s10.834 4 18.501 5
s17.167 1.5 28.5 1.5c12 0 21.833 -0.5 29.5 -1.5s13.667 -2.66699 18 -5s7.5 -5.16602 9.5 -8.49902s3 -7 3 -11v-222h580zM732.996 1337c-11.333 13.333 -13.332 23.667 -5.99902 31s26 11 56 11c25.333 0 43.5 -1.83301 54.5 -5.5s19.167 -9.16699 24.5 -16.5l182 -267
c9.33301 -16 -1.66699 -24 -33 -24c-18.667 0 -32.834 1.5 -42.501 4.5s-17.167 7.83301 -22.5 14.5zM413.997 1337c-12 14 -14.1641 24.499 -6.49707 31.499s26.5 10.5 56.5 10.5c26.667 0 45.167 -1.83301 55.5 -5.5s18.166 -9.16699 23.499 -16.5l182 -267
c5.33301 -7.33301 4.66602 -13.166 -2.00098 -17.499s-17 -6.5 -31 -6.5c-17.333 0 -30.833 1.33301 -40.5 4s-17.834 7.66699 -24.501 15z" />
    <glyph glyph-name="t_uni020B.liga" unicode="t&#x20b;" horiz-adv-x="1109" 
d="M903 946c15.333 0 25.6621 -3.8291 30.9951 -11.4961s8 -18.167 8 -31.5v-883c0 -4 -1 -7.66699 -3 -11s-5.16699 -6 -9.5 -8s-10.333 -3.66699 -18 -5s-17.167 -2 -28.5 -2c-12 0 -21.833 0.666992 -29.5 2s-13.667 3 -18 5s-7.5 4.66699 -9.5 8s-3 7 -3 11v825h-500
v-547c0 -68.667 9.83301 -121 29.5 -157s55.5 -54 107.5 -54c16 0 30.5 1.66699 43.5 5s24.5 7 34.5 11s18.5 7.66699 25.5 11s13.167 5 18.5 5c3.33301 0 6.33301 -0.666992 9 -2s4.83398 -3.83301 6.50098 -7.5s3 -8.33398 4 -14.001s1.5 -12.834 1.5 -21.501
c0 -14 -1.16699 -25.333 -3.5 -34s-6 -15.5 -11 -20.5s-12.333 -9.66699 -22 -14s-20.834 -8 -33.501 -11s-26 -5.33301 -40 -7s-27.667 -2.5 -41 -2.5c-44.667 0 -82.667 6 -114 18s-57 30.167 -77 54.5s-34.5 55.166 -43.5 92.499s-13.5 81.333 -13.5 132v563h-135
c-9.33301 0 -16.666 4.16699 -21.999 12.5s-8 20.833 -8 37.5c0 8.66699 0.666992 16.167 2 22.5s3.33301 11.666 6 15.999s5.83398 7.5 9.50098 9.5s7.83398 3 12.501 3h135v222c0 4 0.833008 7.66699 2.5 11s4.83398 6.16602 9.50098 8.49902s10.834 4 18.501 5
s17.167 1.5 28.5 1.5c12 0 21.833 -0.5 29.5 -1.5s13.667 -2.66699 18 -5s7.5 -5.16602 9.5 -8.49902s3 -7 3 -11v-222h580zM1027 1125c-1.33301 30.667 -6.00391 57.0059 -14.0039 79.0059s-18.667 39.833 -32 53.5s-28.666 23.667 -45.999 30s-36.333 9.5 -57 9.5
c-49.333 0 -85.5 -15.5 -108.5 -46.5s-36.167 -72.833 -39.5 -125.5c0 -8.66699 -3 -14.834 -9 -18.501s-18.333 -5.5 -37 -5.5c-17.333 0 -29.166 2.16699 -35.499 6.5s-9.5 11.166 -9.5 20.499c0 83.333 19.167 148.166 57.5 194.499s98.833 69.5 181.5 69.5
c76.667 0 135.834 -21.833 177.501 -65.5s62.5 -110.834 62.5 -201.501c0 -8.66699 -2.66699 -14.834 -8 -18.501s-17.666 -5.5 -36.999 -5.5c-18.667 0 -31 2.16699 -37 6.5s-9 10.166 -9 17.499z" />
    <glyph glyph-name="t_uni1E2D.liga" unicode="t&#x1e2d;" horiz-adv-x="1109" 
d="M903 946c15.333 0 25.6621 -3.8291 30.9951 -11.4961s8 -18.167 8 -31.5v-883c0 -4 -1 -7.66699 -3 -11s-5.16699 -6 -9.5 -8s-10.333 -3.66699 -18 -5s-17.167 -2 -28.5 -2c-12 0 -21.833 0.666992 -29.5 2s-13.667 3 -18 5s-7.5 4.66699 -9.5 8s-3 7 -3 11v825h-500
v-547c0 -68.667 9.83301 -121 29.5 -157s55.5 -54 107.5 -54c16 0 30.5 1.66699 43.5 5s24.5 7 34.5 11s18.5 7.66699 25.5 11s13.167 5 18.5 5c3.33301 0 6.33301 -0.666992 9 -2s4.83398 -3.83301 6.50098 -7.5s3 -8.33398 4 -14.001s1.5 -12.834 1.5 -21.501
c0 -14 -1.16699 -25.333 -3.5 -34s-6 -15.5 -11 -20.5s-12.333 -9.66699 -22 -14s-20.834 -8 -33.501 -11s-26 -5.33301 -40 -7s-27.667 -2.5 -41 -2.5c-44.667 0 -82.667 6 -114 18s-57 30.167 -77 54.5s-34.5 55.166 -43.5 92.499s-13.5 81.333 -13.5 132v563h-135
c-9.33301 0 -16.666 4.16699 -21.999 12.5s-8 20.833 -8 37.5c0 8.66699 0.666992 16.167 2 22.5s3.33301 11.666 6 15.999s5.83398 7.5 9.50098 9.5s7.83398 3 12.501 3h135v222c0 4 0.833008 7.66699 2.5 11s4.83398 6.16602 9.50098 8.49902s10.834 4 18.501 5
s17.167 1.5 28.5 1.5c12 0 21.833 -0.5 29.5 -1.5s13.667 -2.66699 18 -5s7.5 -5.16602 9.5 -8.49902s3 -7 3 -11v-222h580zM962.996 1230c0 -32 -5.66699 -53.667 -17 -65s-32 -17 -62 -17c-29.333 0 -49.5 5.5 -60.5 16.5s-16.5 32.5 -16.5 64.5s5.66699 53.667 17 65
s32 17 62 17c29.333 0 49.5 -5.5 60.5 -16.5s16.5 -32.5 16.5 -64.5zM1204 -198.996c0 -65.333 -16.5029 -115.167 -49.5029 -149.5s-76.5 -51.5 -130.5 -51.5c-24 0 -45.5 3.5 -64.5 10.5s-36.5 15.833 -52.5 26.5s-30.833 22.167 -44.5 34.5s-27.167 23.833 -40.5 34.5
s-26.666 19.5 -39.999 26.5s-27.666 10.5 -42.999 10.5c-29.333 0 -49.666 -10.833 -60.999 -32.5s-17 -49.834 -17 -84.501c0 -9.33301 -3 -16 -9 -20s-20.333 -6 -43 -6c-17.333 0 -29.333 2.83301 -36 8.5s-10 17.167 -10 34.5c0 60 15.5 108.333 46.5 145
s75.167 55 132.5 55c36 0 66.833 -7.5 92.5 -22.5s49 -31.333 70 -49l60.5 -49c19.333 -15 40.333 -22.5 63 -22.5c52 0 78 39 78 117c0 9.33301 2.83301 16 8.5 20s18.167 6 37.5 6c21.333 0 35.333 -2.66699 42 -8s10 -16.666 10 -33.999z" />
    <glyph glyph-name="t_uni1E2F.liga" unicode="t&#x1e2f;" horiz-adv-x="1109" 
d="M903 946c15.333 0 25.6621 -3.8291 30.9951 -11.4961s8 -18.167 8 -31.5v-883c0 -4 -1 -7.66699 -3 -11s-5.16699 -6 -9.5 -8s-10.333 -3.66699 -18 -5s-17.167 -2 -28.5 -2c-12 0 -21.833 0.666992 -29.5 2s-13.667 3 -18 5s-7.5 4.66699 -9.5 8s-3 7 -3 11v825h-500
v-547c0 -68.667 9.83301 -121 29.5 -157s55.5 -54 107.5 -54c16 0 30.5 1.66699 43.5 5s24.5 7 34.5 11s18.5 7.66699 25.5 11s13.167 5 18.5 5c3.33301 0 6.33301 -0.666992 9 -2s4.83398 -3.83301 6.50098 -7.5s3 -8.33398 4 -14.001s1.5 -12.834 1.5 -21.501
c0 -14 -1.16699 -25.333 -3.5 -34s-6 -15.5 -11 -20.5s-12.333 -9.66699 -22 -14s-20.834 -8 -33.501 -11s-26 -5.33301 -40 -7s-27.667 -2.5 -41 -2.5c-44.667 0 -82.667 6 -114 18s-57 30.167 -77 54.5s-34.5 55.166 -43.5 92.499s-13.5 81.333 -13.5 132v563h-135
c-9.33301 0 -16.666 4.16699 -21.999 12.5s-8 20.833 -8 37.5c0 8.66699 0.666992 16.167 2 22.5s3.33301 11.666 6 15.999s5.83398 7.5 9.50098 9.5s7.83398 3 12.501 3h135v222c0 4 0.833008 7.66699 2.5 11s4.83398 6.16602 9.50098 8.49902s10.834 4 18.501 5
s17.167 1.5 28.5 1.5c12 0 21.833 -0.5 29.5 -1.5s13.667 -2.66699 18 -5s7.5 -5.16602 9.5 -8.49902s3 -7 3 -11v-222h580zM621.996 1210c0 30.667 5.16895 51.501 15.502 62.501s29.833 16.5 58.5 16.5c29.333 0 49.166 -5.33301 59.499 -16s15.5 -31.334 15.5 -62.001
c0 -30 -5.33301 -50.5 -16 -61.5s-30.334 -16.5 -59.001 -16.5s-48.167 5.16699 -58.5 15.5s-15.5 30.833 -15.5 61.5zM955.998 1210c0 30.667 5.16895 51.501 15.502 62.501s29.833 16.5 58.5 16.5c29.333 0 49.166 -5.33301 59.499 -16s15.5 -31.334 15.5 -62.001
c0 -30 -5.33301 -50.5 -16 -61.5s-30.334 -16.5 -59.001 -16.5s-48.167 5.16699 -58.5 15.5s-15.5 30.833 -15.5 61.5zM983 1628.01c8.66699 14 18.6719 23.168 30.0049 27.501s29.666 6.5 54.999 6.5s41.166 -3.83301 47.499 -11.5s4.83301 -17.5 -4.5 -29.5l-174 -234
c-4.66699 -6.66699 -8.83398 -11.834 -12.501 -15.501s-7.83398 -6.5 -12.501 -8.5s-10.334 -3.33301 -17.001 -4s-15 -1 -25 -1c-20.667 0 -33.167 3.16699 -37.5 9.5s-2.83301 15.5 4.5 27.5z" />
    <glyph glyph-name="t_uni0268.liga" unicode="t&#x268;" horiz-adv-x="1154" 
d="M903 946c15.333 0 25.668 -3.83301 31.001 -11.5s8 -18.167 8 -31.5v-337h170c20 0 30 -16.667 30 -50s-10 -50 -30 -50h-170v-446c0 -8 -4 -14.333 -12 -19s-23.667 -7 -47 -7s-39.166 2.33301 -47.499 7s-12.5 11 -12.5 19v446h-170
c-9.33301 0 -16.666 4.16699 -21.999 12.5s-8 20.833 -8 37.5s2.66699 29.167 8 37.5s12.666 12.5 21.999 12.5h170v279h-500v-547c0 -68.667 9.83301 -121 29.5 -157s55.5 -54 107.5 -54c16 0 30.5 1.66699 43.5 5s24.5 7 34.5 11s18.5 7.66699 25.5 11s13.167 5 18.5 5
c6.66699 0 11.834 -3.16699 15.501 -9.5s5.5 -18.166 5.5 -35.499c0 -26.667 -5 -45 -15 -55c-4.66699 -4.66699 -11.834 -9.16699 -21.501 -13.5s-20.834 -8 -33.501 -11s-26 -5.33301 -40 -7s-27.667 -2.5 -41 -2.5c-44.667 0 -82.667 6 -114 18s-57 30.167 -77 54.5
s-34.5 55.166 -43.5 92.499s-13.5 81.333 -13.5 132v563h-135c-20 0 -30 16.667 -30 50c0 34 10 51 30 51h135v222c0 8.66699 4 15.167 12 19.5s23.667 6.5 47 6.5s39.166 -2.16699 47.499 -6.5s12.5 -10.833 12.5 -19.5v-222h580zM960.002 1229
c0 -30.667 -5.33301 -51.834 -16 -63.501s-31.334 -17.5 -62.001 -17.5s-51.334 5.83301 -62.001 17.5s-16 32.834 -16 63.501s5.33301 52 16 64s31.334 18 62.001 18s51.334 -6 62.001 -18s16 -33.333 16 -64z" />
    <glyph glyph-name="t_t_uni01D0.liga" unicode="tt&#x1d0;" horiz-adv-x="1709" 
d="M323 845l-0.00585938 -546.993c0 -68.667 9.83301 -121 29.5 -157s55.5 -54 107.5 -54c16 0 30.5 1.66699 43.5 5s24.5 7 34.5 11s18.5 7.66699 25.5 11s13.167 5 18.5 5c3.33301 0 6.33301 -0.666992 9 -2s4.83398 -3.83301 6.50098 -7.5s3 -8.33398 4 -14.001
s1.5 -12.834 1.5 -21.501c0 -14 -1.16699 -25.333 -3.5 -34s-6 -15.5 -11 -20.5s-12.333 -9.66699 -22 -14s-20.834 -8 -33.501 -11s-26 -5.33301 -40 -7s-27.667 -2.5 -41 -2.5c-44.667 0 -82.667 6 -114 18s-57 30.167 -77 54.5s-34.5 55.166 -43.5 92.499
s-13.5 81.333 -13.5 132v563h-135c-9.33301 0 -16.666 4.16699 -21.999 12.5s-8 20.833 -8 37.5c0 8.66699 0.666992 16.167 2 22.5s3.33301 11.666 6 15.999s5.83398 7.5 9.50098 9.5s7.83398 3 12.501 3h135v222c0 4 0.833008 7.66699 2.5 11
s4.83398 6.16602 9.50098 8.49902s10.834 4 18.501 5s17.167 1.5 28.5 1.5c12 0 21.833 -0.5 29.5 -1.5s13.667 -2.66699 18 -5s7.5 -5.16602 9.5 -8.49902s3 -7 3 -11v-222h482v263c0 4 0.833008 7.66699 2.5 11s4.83398 6 9.50098 8s10.834 3.66699 18.501 5
s17.167 2 28.5 2c12 0 21.833 -0.666992 29.5 -2s13.667 -3 18 -5s7.5 -4.66699 9.5 -8s3 -7 3 -11v-263h580c14.667 0 24.834 -3.83301 30.501 -11.5s8.5 -18.167 8.5 -31.5v-883c0 -4 -1 -7.66699 -3 -11s-5.16699 -6 -9.5 -8s-10.333 -3.66699 -18 -5s-17.5 -2 -29.5 -2
c-11.333 0 -20.833 0.666992 -28.5 2s-13.834 3 -18.501 5s-7.83398 4.66699 -9.50098 8s-2.5 7 -2.5 11v825h-500v-547c0 -68.667 9.83301 -121 29.5 -157s55.167 -54 106.5 -54c16 0 30.5 1.66699 43.5 5s24.5 7 34.5 11s18.667 7.66699 26 11s13.666 5 18.999 5
c3.33301 0 6.16602 -0.666992 8.49902 -2s4.33301 -3.83301 6 -7.5s3 -8.33398 4 -14.001s1.5 -12.834 1.5 -21.501c0 -14 -1 -25.333 -3 -34s-5.66699 -15.5 -11 -20.5s-12.666 -9.66699 -21.999 -14s-20.333 -8 -33 -11s-26 -5.33301 -40 -7s-27.667 -2.5 -41 -2.5
c-45.333 0 -83.666 6 -114.999 18s-56.833 30.167 -76.5 54.5s-34 55.166 -43 92.499s-13.5 81.333 -13.5 132v563h-482zM1626.99 1374.01c4 4.66699 7.66504 8.66699 10.998 12s7.33301 6 12 8s10 3.5 16 4.5s13.333 1.5 22 1.5c12.667 0 22.834 -1 30.501 -3
s12.667 -5 15 -9s2.33301 -9.16699 0 -15.5s-6.83301 -13.833 -13.5 -22.5l-169 -232c-3.33301 -4.66699 -6.83301 -8.5 -10.5 -11.5s-8.16699 -5.16699 -13.5 -6.5s-11.833 -2.33301 -19.5 -3s-17.167 -1 -28.5 -1c-10 0 -18.333 0.333008 -25 1
s-12.5 1.83398 -17.5 3.50098s-9.16699 4 -12.5 7s-6.66602 6.5 -9.99902 10.5l-169 232c-6 8 -10.167 15.167 -12.5 21.5s-2.33301 11.666 0 15.999s7 7.5 14 9.5s17.167 3 30.5 3c10 0 18 -0.5 24 -1.5s11.167 -2.5 15.5 -4.5s8 -4.66699 11 -8l10.5 -12l144 -199z" />
    <glyph glyph-name="t_t_uni0209.liga" unicode="tt&#x209;" horiz-adv-x="1709" 
d="M323 845l-0.00585938 -546.993c0 -68.667 9.83301 -121 29.5 -157s55.5 -54 107.5 -54c16 0 30.5 1.66699 43.5 5s24.5 7 34.5 11s18.5 7.66699 25.5 11s13.167 5 18.5 5c3.33301 0 6.33301 -0.666992 9 -2s4.83398 -3.83301 6.50098 -7.5s3 -8.33398 4 -14.001
s1.5 -12.834 1.5 -21.501c0 -14 -1.16699 -25.333 -3.5 -34s-6 -15.5 -11 -20.5s-12.333 -9.66699 -22 -14s-20.834 -8 -33.501 -11s-26 -5.33301 -40 -7s-27.667 -2.5 -41 -2.5c-44.667 0 -82.667 6 -114 18s-57 30.167 -77 54.5s-34.5 55.166 -43.5 92.499
s-13.5 81.333 -13.5 132v563h-135c-9.33301 0 -16.666 4.16699 -21.999 12.5s-8 20.833 -8 37.5c0 8.66699 0.666992 16.167 2 22.5s3.33301 11.666 6 15.999s5.83398 7.5 9.50098 9.5s7.83398 3 12.501 3h135v222c0 4 0.833008 7.66699 2.5 11
s4.83398 6.16602 9.50098 8.49902s10.834 4 18.501 5s17.167 1.5 28.5 1.5c12 0 21.833 -0.5 29.5 -1.5s13.667 -2.66699 18 -5s7.5 -5.16602 9.5 -8.49902s3 -7 3 -11v-222h482v263c0 4 0.833008 7.66699 2.5 11s4.83398 6 9.50098 8s10.834 3.66699 18.501 5
s17.167 2 28.5 2c12 0 21.833 -0.666992 29.5 -2s13.667 -3 18 -5s7.5 -4.66699 9.5 -8s3 -7 3 -11v-263h580c14.667 0 24.834 -3.83301 30.501 -11.5s8.5 -18.167 8.5 -31.5v-883c0 -4 -1 -7.66699 -3 -11s-5.16699 -6 -9.5 -8s-10.333 -3.66699 -18 -5s-17.5 -2 -29.5 -2
c-11.333 0 -20.833 0.666992 -28.5 2s-13.834 3 -18.501 5s-7.83398 4.66699 -9.50098 8s-2.5 7 -2.5 11v825h-500v-547c0 -68.667 9.83301 -121 29.5 -157s55.167 -54 106.5 -54c16 0 30.5 1.66699 43.5 5s24.5 7 34.5 11s18.667 7.66699 26 11s13.666 5 18.999 5
c3.33301 0 6.16602 -0.666992 8.49902 -2s4.33301 -3.83301 6 -7.5s3 -8.33398 4 -14.001s1.5 -12.834 1.5 -21.501c0 -14 -1 -25.333 -3 -34s-5.66699 -15.5 -11 -20.5s-12.666 -9.66699 -21.999 -14s-20.333 -8 -33 -11s-26 -5.33301 -40 -7s-27.667 -2.5 -41 -2.5
c-45.333 0 -83.666 6 -114.999 18s-56.833 30.167 -76.5 54.5s-34 55.166 -43 92.499s-13.5 81.333 -13.5 132v563h-482zM1370.99 1337.01c-11.333 13.333 -13.332 23.667 -5.99902 31s26 11 56 11c25.333 0 43.5 -1.83301 54.5 -5.5s19.167 -9.16699 24.5 -16.5l182 -267
c9.33301 -16 -1.66699 -24 -33 -24c-18.667 0 -32.834 1.5 -42.501 4.5s-17.167 7.83301 -22.5 14.5zM1052 1337.01c-12 14 -14.1641 24.499 -6.49707 31.499s26.5 10.5 56.5 10.5c26.667 0 45.167 -1.83301 55.5 -5.5s18.166 -9.16699 23.499 -16.5l182 -267
c5.33301 -7.33301 4.66602 -13.166 -2.00098 -17.499s-17 -6.5 -31 -6.5c-17.333 0 -30.833 1.33301 -40.5 4s-17.834 7.66699 -24.501 15z" />
    <glyph glyph-name="t_t_uni020B.liga" unicode="tt&#x20b;" horiz-adv-x="1709" 
d="M323 845l-0.00585938 -546.993c0 -68.667 9.83301 -121 29.5 -157s55.5 -54 107.5 -54c16 0 30.5 1.66699 43.5 5s24.5 7 34.5 11s18.5 7.66699 25.5 11s13.167 5 18.5 5c3.33301 0 6.33301 -0.666992 9 -2s4.83398 -3.83301 6.50098 -7.5s3 -8.33398 4 -14.001
s1.5 -12.834 1.5 -21.501c0 -14 -1.16699 -25.333 -3.5 -34s-6 -15.5 -11 -20.5s-12.333 -9.66699 -22 -14s-20.834 -8 -33.501 -11s-26 -5.33301 -40 -7s-27.667 -2.5 -41 -2.5c-44.667 0 -82.667 6 -114 18s-57 30.167 -77 54.5s-34.5 55.166 -43.5 92.499
s-13.5 81.333 -13.5 132v563h-135c-9.33301 0 -16.666 4.16699 -21.999 12.5s-8 20.833 -8 37.5c0 8.66699 0.666992 16.167 2 22.5s3.33301 11.666 6 15.999s5.83398 7.5 9.50098 9.5s7.83398 3 12.501 3h135v222c0 4 0.833008 7.66699 2.5 11
s4.83398 6.16602 9.50098 8.49902s10.834 4 18.501 5s17.167 1.5 28.5 1.5c12 0 21.833 -0.5 29.5 -1.5s13.667 -2.66699 18 -5s7.5 -5.16602 9.5 -8.49902s3 -7 3 -11v-222h482v263c0 4 0.833008 7.66699 2.5 11s4.83398 6 9.50098 8s10.834 3.66699 18.501 5
s17.167 2 28.5 2c12 0 21.833 -0.666992 29.5 -2s13.667 -3 18 -5s7.5 -4.66699 9.5 -8s3 -7 3 -11v-263h580c14.667 0 24.834 -3.83301 30.501 -11.5s8.5 -18.167 8.5 -31.5v-883c0 -4 -1 -7.66699 -3 -11s-5.16699 -6 -9.5 -8s-10.333 -3.66699 -18 -5s-17.5 -2 -29.5 -2
c-11.333 0 -20.833 0.666992 -28.5 2s-13.834 3 -18.501 5s-7.83398 4.66699 -9.50098 8s-2.5 7 -2.5 11v825h-500v-547c0 -68.667 9.83301 -121 29.5 -157s55.167 -54 106.5 -54c16 0 30.5 1.66699 43.5 5s24.5 7 34.5 11s18.667 7.66699 26 11s13.666 5 18.999 5
c3.33301 0 6.16602 -0.666992 8.49902 -2s4.33301 -3.83301 6 -7.5s3 -8.33398 4 -14.001s1.5 -12.834 1.5 -21.501c0 -14 -1 -25.333 -3 -34s-5.66699 -15.5 -11 -20.5s-12.666 -9.66699 -21.999 -14s-20.333 -8 -33 -11s-26 -5.33301 -40 -7s-27.667 -2.5 -41 -2.5
c-45.333 0 -83.666 6 -114.999 18s-56.833 30.167 -76.5 54.5s-34 55.166 -43 92.499s-13.5 81.333 -13.5 132v563h-482zM1627.99 1125.01c-1.33301 30.667 -6.00391 57.0059 -14.0039 79.0059s-18.667 39.833 -32 53.5s-28.666 23.667 -45.999 30s-36.333 9.5 -57 9.5
c-49.333 0 -85.5 -15.5 -108.5 -46.5s-36.167 -72.833 -39.5 -125.5c0 -8.66699 -3 -14.834 -9 -18.501s-18.333 -5.5 -37 -5.5c-17.333 0 -29.166 2.16699 -35.499 6.5s-9.5 11.166 -9.5 20.499c0 83.333 19.167 148.166 57.5 194.499s98.833 69.5 181.5 69.5
c76.667 0 135.834 -21.833 177.501 -65.5s62.5 -110.834 62.5 -201.501c0 -8.66699 -2.66699 -14.834 -8 -18.501s-17.666 -5.5 -36.999 -5.5c-18.667 0 -31 2.16699 -37 6.5s-9 10.166 -9 17.499z" />
    <glyph glyph-name="t_t_uni1E2D.liga" unicode="tt&#x1e2d;" horiz-adv-x="1709" 
d="M323 845l-0.00585938 -546.993c0 -68.667 9.83301 -121 29.5 -157s55.5 -54 107.5 -54c16 0 30.5 1.66699 43.5 5s24.5 7 34.5 11s18.5 7.66699 25.5 11s13.167 5 18.5 5c3.33301 0 6.33301 -0.666992 9 -2s4.83398 -3.83301 6.50098 -7.5s3 -8.33398 4 -14.001
s1.5 -12.834 1.5 -21.501c0 -14 -1.16699 -25.333 -3.5 -34s-6 -15.5 -11 -20.5s-12.333 -9.66699 -22 -14s-20.834 -8 -33.501 -11s-26 -5.33301 -40 -7s-27.667 -2.5 -41 -2.5c-44.667 0 -82.667 6 -114 18s-57 30.167 -77 54.5s-34.5 55.166 -43.5 92.499
s-13.5 81.333 -13.5 132v563h-135c-9.33301 0 -16.666 4.16699 -21.999 12.5s-8 20.833 -8 37.5c0 8.66699 0.666992 16.167 2 22.5s3.33301 11.666 6 15.999s5.83398 7.5 9.50098 9.5s7.83398 3 12.501 3h135v222c0 4 0.833008 7.66699 2.5 11
s4.83398 6.16602 9.50098 8.49902s10.834 4 18.501 5s17.167 1.5 28.5 1.5c12 0 21.833 -0.5 29.5 -1.5s13.667 -2.66699 18 -5s7.5 -5.16602 9.5 -8.49902s3 -7 3 -11v-222h482v263c0 4 0.833008 7.66699 2.5 11s4.83398 6 9.50098 8s10.834 3.66699 18.501 5
s17.167 2 28.5 2c12 0 21.833 -0.666992 29.5 -2s13.667 -3 18 -5s7.5 -4.66699 9.5 -8s3 -7 3 -11v-263h580c14.667 0 24.834 -3.83301 30.501 -11.5s8.5 -18.167 8.5 -31.5v-883c0 -4 -1 -7.66699 -3 -11s-5.16699 -6 -9.5 -8s-10.333 -3.66699 -18 -5s-17.5 -2 -29.5 -2
c-11.333 0 -20.833 0.666992 -28.5 2s-13.834 3 -18.501 5s-7.83398 4.66699 -9.50098 8s-2.5 7 -2.5 11v825h-500v-547c0 -68.667 9.83301 -121 29.5 -157s55.167 -54 106.5 -54c16 0 30.5 1.66699 43.5 5s24.5 7 34.5 11s18.667 7.66699 26 11s13.666 5 18.999 5
c3.33301 0 6.16602 -0.666992 8.49902 -2s4.33301 -3.83301 6 -7.5s3 -8.33398 4 -14.001s1.5 -12.834 1.5 -21.501c0 -14 -1 -25.333 -3 -34s-5.66699 -15.5 -11 -20.5s-12.666 -9.66699 -21.999 -14s-20.333 -8 -33 -11s-26 -5.33301 -40 -7s-27.667 -2.5 -41 -2.5
c-45.333 0 -83.666 6 -114.999 18s-56.833 30.167 -76.5 54.5s-34 55.166 -43 92.499s-13.5 81.333 -13.5 132v563h-482zM1560.99 1230.01c0 -32 -5.66699 -53.667 -17 -65s-32 -17 -62 -17c-29.333 0 -49.5 5.5 -60.5 16.5s-16.5 32.5 -16.5 64.5s5.66699 53.667 17 65
s32 17 62 17c29.333 0 49.5 -5.5 60.5 -16.5s16.5 -32.5 16.5 -64.5zM1804.99 -198.993c0 -65.333 -16.5029 -115.167 -49.5029 -149.5s-76.5 -51.5 -130.5 -51.5c-24 0 -45.5 3.5 -64.5 10.5s-36.5 15.833 -52.5 26.5s-30.833 22.167 -44.5 34.5s-27.167 23.833 -40.5 34.5
s-26.666 19.5 -39.999 26.5s-27.666 10.5 -42.999 10.5c-29.333 0 -49.666 -10.833 -60.999 -32.5s-17 -49.834 -17 -84.501c0 -9.33301 -3 -16 -9 -20s-20.333 -6 -43 -6c-17.333 0 -29.333 2.83301 -36 8.5s-10 17.167 -10 34.5c0 60 15.5 108.333 46.5 145
s75.167 55 132.5 55c36 0 66.833 -7.5 92.5 -22.5s49 -31.333 70 -49l60.5 -49c19.333 -15 40.333 -22.5 63 -22.5c52 0 78 39 78 117c0 9.33301 2.83301 16 8.5 20s18.167 6 37.5 6c21.333 0 35.333 -2.66699 42 -8s10 -16.666 10 -33.999z" />
    <glyph glyph-name="t_t_uni1E2F.liga" unicode="tt&#x1e2f;" horiz-adv-x="1709" 
d="M323 845l-0.00585938 -546.993c0 -68.667 9.83301 -121 29.5 -157s55.5 -54 107.5 -54c16 0 30.5 1.66699 43.5 5s24.5 7 34.5 11s18.5 7.66699 25.5 11s13.167 5 18.5 5c3.33301 0 6.33301 -0.666992 9 -2s4.83398 -3.83301 6.50098 -7.5s3 -8.33398 4 -14.001
s1.5 -12.834 1.5 -21.501c0 -14 -1.16699 -25.333 -3.5 -34s-6 -15.5 -11 -20.5s-12.333 -9.66699 -22 -14s-20.834 -8 -33.501 -11s-26 -5.33301 -40 -7s-27.667 -2.5 -41 -2.5c-44.667 0 -82.667 6 -114 18s-57 30.167 -77 54.5s-34.5 55.166 -43.5 92.499
s-13.5 81.333 -13.5 132v563h-135c-9.33301 0 -16.666 4.16699 -21.999 12.5s-8 20.833 -8 37.5c0 8.66699 0.666992 16.167 2 22.5s3.33301 11.666 6 15.999s5.83398 7.5 9.50098 9.5s7.83398 3 12.501 3h135v222c0 4 0.833008 7.66699 2.5 11
s4.83398 6.16602 9.50098 8.49902s10.834 4 18.501 5s17.167 1.5 28.5 1.5c12 0 21.833 -0.5 29.5 -1.5s13.667 -2.66699 18 -5s7.5 -5.16602 9.5 -8.49902s3 -7 3 -11v-222h482v263c0 4 0.833008 7.66699 2.5 11s4.83398 6 9.50098 8s10.834 3.66699 18.501 5
s17.167 2 28.5 2c12 0 21.833 -0.666992 29.5 -2s13.667 -3 18 -5s7.5 -4.66699 9.5 -8s3 -7 3 -11v-263h580c14.667 0 24.834 -3.83301 30.501 -11.5s8.5 -18.167 8.5 -31.5v-883c0 -4 -1 -7.66699 -3 -11s-5.16699 -6 -9.5 -8s-10.333 -3.66699 -18 -5s-17.5 -2 -29.5 -2
c-11.333 0 -20.833 0.666992 -28.5 2s-13.834 3 -18.501 5s-7.83398 4.66699 -9.50098 8s-2.5 7 -2.5 11v825h-500v-547c0 -68.667 9.83301 -121 29.5 -157s55.167 -54 106.5 -54c16 0 30.5 1.66699 43.5 5s24.5 7 34.5 11s18.667 7.66699 26 11s13.666 5 18.999 5
c3.33301 0 6.16602 -0.666992 8.49902 -2s4.33301 -3.83301 6 -7.5s3 -8.33398 4 -14.001s1.5 -12.834 1.5 -21.501c0 -14 -1 -25.333 -3 -34s-5.66699 -15.5 -11 -20.5s-12.666 -9.66699 -21.999 -14s-20.333 -8 -33 -11s-26 -5.33301 -40 -7s-27.667 -2.5 -41 -2.5
c-45.333 0 -83.666 6 -114.999 18s-56.833 30.167 -76.5 54.5s-34 55.166 -43 92.499s-13.5 81.333 -13.5 132v563h-482zM1227.99 1210.01c0 30.667 5.16895 51.501 15.502 62.501s29.833 16.5 58.5 16.5c29.333 0 49.166 -5.33301 59.499 -16s15.5 -31.334 15.5 -62.001
c0 -30 -5.33301 -50.5 -16 -61.5s-30.334 -16.5 -59.001 -16.5s-48.167 5.16699 -58.5 15.5s-15.5 30.833 -15.5 61.5zM1562 1210.01c0 30.667 5.16895 51.501 15.502 62.501s29.833 16.5 58.5 16.5c29.333 0 49.166 -5.33301 59.499 -16s15.5 -31.334 15.5 -62.001
c0 -30 -5.33301 -50.5 -16 -61.5s-30.334 -16.5 -59.001 -16.5s-48.167 5.16699 -58.5 15.5s-15.5 30.833 -15.5 61.5zM1589 1628.01c8.66699 14 18.6719 23.168 30.0049 27.501s29.666 6.5 54.999 6.5s41.166 -3.83301 47.499 -11.5s4.83301 -17.5 -4.5 -29.5l-174 -234
c-4.66699 -6.66699 -8.83398 -11.834 -12.501 -15.501s-7.83398 -6.5 -12.501 -8.5s-10.334 -3.33301 -17.001 -4s-15 -1 -25 -1c-20.667 0 -33.167 3.16699 -37.5 9.5s-2.83301 15.5 4.5 27.5z" />
    <glyph glyph-name="t_t_uni0268.liga" unicode="tt&#x268;" horiz-adv-x="1755" 
d="M323 845l0.000976562 -547c0 -68.667 9.83301 -121 29.5 -157s55.5 -54 107.5 -54c16 0 30.5 1.66699 43.5 5s24.5 7 34.5 11s18.5 7.66699 25.5 11s13.167 5 18.5 5c6.66699 0 11.834 -3.16699 15.501 -9.5s5.5 -18.166 5.5 -35.499c0 -26.667 -5 -45 -15 -55
c-4.66699 -4.66699 -11.834 -9.16699 -21.501 -13.5s-20.834 -8 -33.501 -11s-26 -5.33301 -40 -7s-27.667 -2.5 -41 -2.5c-44.667 0 -82.667 6 -114 18s-57 30.167 -77 54.5s-34.5 55.166 -43.5 92.499s-13.5 81.333 -13.5 132v563h-135c-20 0 -30 16.667 -30 50
c0 34 10 51 30 51h135v222c0 8.66699 4 15.167 12 19.5s23.667 6.5 47 6.5s39.166 -2.16699 47.499 -6.5s12.5 -10.833 12.5 -19.5v-222h482v263c0 8 4 14.333 12 19s23.667 7 47 7s39.166 -2.33301 47.499 -7s12.5 -11 12.5 -19v-263h580
c14.667 0 24.834 -3.83301 30.501 -11.5s8.5 -18.167 8.5 -31.5v-337h170c20 0 30 -16.667 30 -50s-10 -50 -30 -50h-170v-446c0 -8 -4.16699 -14.333 -12.5 -19s-24.166 -7 -47.499 -7s-39 2.33301 -47 7s-12 11 -12 19v446h-170c-9.33301 0 -16.666 4.16699 -21.999 12.5
s-8 20.833 -8 37.5s2.66699 29.167 8 37.5s12.666 12.5 21.999 12.5h170v279h-500v-547c0 -68.667 9.83301 -121 29.5 -157s55.167 -54 106.5 -54c16 0 30.5 1.66699 43.5 5s24.5 7 34.5 11s18.667 7.66699 26 11s13.666 5 18.999 5c6.66699 0 11.667 -3.16699 15 -9.5
s5 -18.166 5 -35.499c0 -14 -1 -25.333 -3 -34s-6 -15.667 -12 -21c-4.66699 -4.66699 -11.667 -9.16699 -21 -13.5s-20.333 -8 -33 -11s-26 -5.33301 -40 -7s-27.667 -2.5 -41 -2.5c-45.333 0 -83.666 6 -114.999 18s-56.833 30.167 -76.5 54.5s-34 55.166 -43 92.499
s-13.5 81.333 -13.5 132v563h-482zM1561 1229c0 -30.667 -5.33301 -51.834 -16 -63.501s-31.334 -17.5 -62.001 -17.5s-51.334 5.83301 -62.001 17.5s-16 32.834 -16 63.501s5.33301 52 16 64s31.334 18 62.001 18s51.334 -6 62.001 -18s16 -33.333 16 -64z" />
    <glyph glyph-name="f_uni0237.liga" unicode="f&#x237;" horiz-adv-x="1057" 
d="M890 -63c0 -45.333 -3.66406 -86.5 -10.9971 -123.5s-20.5 -68.667 -39.5 -95s-45 -46.833 -78 -61.5s-74.833 -22 -125.5 -22c-30 0 -56.667 3 -80 9s-38.666 12.667 -45.999 20c-4 4 -6.83301 9 -8.5 15s-2.5 16 -2.5 30c0 34.667 8 52 24 52
c6 0 11.833 -1.16699 17.5 -3.5s12.667 -4.83301 21 -7.5s18.666 -5.16699 30.999 -7.5s28.166 -3.5 47.499 -3.5c22 0 41.333 3.66699 58 11s30.334 19.5 41.001 36.5s18.667 39.167 24 66.5s8 61 8 101v891h-444v-825c0 -8 -4.16699 -14.333 -12.5 -19
s-24.166 -7 -47.499 -7s-39 2.33301 -47 7s-12 11 -12 19v825h-136c-19.333 0 -29 16.667 -29 50c0 34 9.66699 51 29 51h136v126c0 58 5.83301 107.667 17.5 149s28.5 75.166 50.5 101.499s48.667 45.833 80 58.5s66.666 19 105.999 19c19.333 0 38.333 -1.33301 57 -4
s33.667 -6.33398 45 -11.001c9.33301 -3.33301 16 -9.66602 20 -18.999s6 -22.666 6 -39.999c0 -30 -7 -45 -21 -45c-5.33301 0 -10.833 0.833008 -16.5 2.5s-12.834 3.66699 -21.501 6s-18.834 4.33301 -30.501 6s-25.834 2.5 -42.501 2.5
c-46.667 0 -80.167 -18.5 -100.5 -55.5s-30.5 -93.833 -30.5 -170.5v-126h526c13.333 0 22.833 -3.83301 28.5 -11.5s8.5 -17.5 8.5 -29.5v-968z" />
    <glyph glyph-name="f_f_uni0237.liga" unicode="ff&#x237;" horiz-adv-x="1620" 
d="M771 1072c0 58 5.83887 107.662 17.5059 148.995s28.5 75.166 50.5 101.499s48.667 45.833 80 58.5s66.666 19 105.999 19c19.333 0 38.333 -1.5 57 -4.5s33.667 -6.5 45 -10.5c9.33301 -3.33301 16 -9.66602 20 -18.999s6 -22.666 6 -39.999c0 -30 -6.66699 -45 -20 -45
c-5.33301 0 -11 0.833008 -17 2.5l-21.5 6c-8.33301 2.33301 -18.333 4.33301 -30 6s-25.834 2.5 -42.501 2.5c-46.667 0 -80.334 -18.5 -101.001 -55.5s-31 -93.833 -31 -170.5v-126h526c13.333 0 23 -3.83301 29 -11.5s9 -17.5 9 -29.5v-968
c0 -45.333 -3.66699 -86.5 -11 -123.5s-20.5 -68.667 -39.5 -95s-45 -46.833 -78 -61.5s-74.833 -22 -125.5 -22c-30 0 -56.833 3 -80.5 9s-39.167 12.667 -46.5 20c-3.33301 4 -6 9 -8 15s-3 16 -3 30c0 17.333 2.16699 30.333 6.5 39s10.166 13 17.499 13
c6 0 11.833 -1.16699 17.5 -3.5s12.667 -4.83301 21 -7.5s18.666 -5.16699 30.999 -7.5s28.166 -3.5 47.499 -3.5c22 0 41.333 3.66699 58 11s30.5 19.5 41.5 36.5s19.167 39.167 24.5 66.5s8 61 8 101v891h-445v-825c0 -8 -4 -14.333 -12 -19s-23.667 -7 -47 -7
s-39.166 2.33301 -47.499 7s-12.5 11 -12.5 19v825h-444v-825c0 -8 -4.16699 -14.333 -12.5 -19s-24.166 -7 -47.499 -7s-39 2.33301 -47 7s-12 11 -12 19v825h-136c-19.333 0 -29 16.667 -29 50c0 34 9.66699 51 29 51h136v96c0 62.667 5.83301 116 17.5 160
s29 79.833 52 107.5s51.5 47.834 85.5 60.501s73 19 117 19c29.333 0 54.666 -2.66699 75.999 -8s38 -10.666 50 -15.999c11.333 -5.33301 19.166 -13.166 23.499 -23.499s6.5 -24.166 6.5 -41.499c0 -30 -6.66699 -45 -20 -45c-5.33301 0 -12 1.66699 -20 5
s-17.833 7 -29.5 11s-25 7.66699 -40 11s-31.833 5 -50.5 5c-55.333 0 -94 -19.5 -116 -58.5s-33 -101.167 -33 -186.5v-96h444v126z" />
    <glyph glyph-name=".notdef" horiz-adv-x="1038" 
d="M973 1294v-1294h-927v1294h927zM897 70v1154h-778v-1154h778zM760 860c0 -40 -5.99707 -75.667 -17.9971 -107s-28.833 -57.666 -50.5 -78.999s-47.167 -37.833 -76.5 -49.5s-61.333 -17.834 -96 -18.501l-5 -170c0 -5.33301 -3.66699 -9.16602 -11 -11.499
s-18 -3.5 -32 -3.5c-6.66699 0 -12.334 0.333008 -17.001 1s-8.66699 1.66699 -12 3s-5.83301 2.83301 -7.5 4.5s-2.5 3.83398 -2.5 6.50098l-4 200c0 15.333 4.33301 26.5 13 33.5s20 10.5 34 10.5h20c32.667 0 59.834 4.5 81.501 13.5s39.167 21.167 52.5 36.5
s22.833 33.666 28.5 54.999s8.5 44 8.5 68c0 53.333 -14.667 95.333 -44 126s-76.666 46 -141.999 46c-26 0 -49.5 -2.83301 -70.5 -8.5s-39.5 -12 -55.5 -19s-29.333 -13.333 -40 -19s-18.334 -8.5 -23.001 -8.5c-2 0 -4.16699 0.5 -6.5 1.5s-4.33301 3 -6 6s-3 7 -4 12
s-1.5 11.5 -1.5 19.5s0.833008 15.167 2.5 21.5s5.16699 12.166 10.5 17.499c4.66699 4.66699 13.667 10.167 27 16.5s29.166 12.5 47.499 18.5s38.666 11.167 60.999 15.5s44.5 6.5 66.5 6.5c46 0 86 -6.33301 120 -19s62.167 -30 84.5 -52s39.166 -48 50.499 -78
s17 -62 17 -96zM536.003 267c0 -12 -1 -22 -3 -30s-5.33301 -14.5 -10 -19.5s-10.834 -8.5 -18.501 -10.5s-17.167 -3 -28.5 -3c-12 0 -22 1 -30 3s-14.5 5.5 -19.5 10.5s-8.5 11.5 -10.5 19.5s-3 18 -3 30s1 22 3 30s5.5 14.5 10.5 19.5s11.5 8.5 19.5 10.5s18 3 30 3
c11.333 0 20.833 -1 28.5 -3s13.834 -5.5 18.501 -10.5s8 -11.5 10 -19.5s3 -18 3 -30z" />
    <glyph glyph-name="glyph1" 
 />
    <glyph glyph-name="glyph1" 
 />
    <glyph glyph-name="uni000D" unicode="&#xd;" 
 />
    <glyph glyph-name="space" unicode=" " horiz-adv-x="463" 
 />
    <glyph glyph-name="space" unicode="&#xa0;" horiz-adv-x="463" 
 />
    <glyph glyph-name="exclam" unicode="!" horiz-adv-x="667" 
d="M425 345c0 -4 -0.833008 -7.66699 -2.5 -11s-4.66699 -6.16602 -9 -8.49902s-10 -4 -17 -5s-15.5 -1.5 -25.5 -1.5s-18.5 0.5 -25.5 1.5s-12.667 2.66699 -17 5s-7.33301 5.16602 -9 8.49902s-2.5 7 -2.5 11l-13 979c0 8 0.833008 14.833 2.5 20.5s5 10.334 10 14.001
s11.833 6.16699 20.5 7.5s20 2 34 2c13.333 0 24.333 -0.833008 33 -2.5s15.5 -4.33398 20.5 -8.00098s8.5 -8.16699 10.5 -13.5s3 -12 3 -20zM456 89c0 -18.667 -1.16699 -34.167 -3.5 -46.5s-6.83301 -22.166 -13.5 -29.499s-15.5 -12.5 -26.5 -15.5
s-24.833 -4.5 -41.5 -4.5c-17.333 0 -31.5 1.5 -42.5 4.5s-19.667 8.16699 -26 15.5s-10.666 17.166 -12.999 29.499s-3.5 27.833 -3.5 46.5s1.16699 34.334 3.5 47.001s6.66602 22.5 12.999 29.5s15 12 26 15s25.167 4.5 42.5 4.5c16.667 0 30.5 -1.5 41.5 -4.5
s19.833 -8 26.5 -15s11.167 -16.833 13.5 -29.5s3.5 -28.334 3.5 -47.001z" />
    <glyph glyph-name="quotedbl" unicode="&#x22;" horiz-adv-x="779" 
d="M608 897c0 -4 -0.832031 -7.66699 -2.49902 -11s-4.5 -6 -8.5 -8s-9 -3.66699 -15 -5s-13.333 -2 -22 -2c-9.33301 0 -17 0.666992 -23 2s-10.833 3 -14.5 5s-6.33398 4.66699 -8.00098 8s-2.5 7 -2.5 11l-23 473c0 4 1.5 7.66699 4.5 11s7.33301 6.16602 13 8.49902
s13 4 22 5s19.5 1.5 31.5 1.5c12.667 0 23.5 -0.5 32.5 -1.5s16.333 -2.66699 22 -5s9.66699 -5.16602 12 -8.49902s3.5 -7 3.5 -11zM267.001 897c0 -4 -0.832031 -7.66602 -2.49902 -10.999s-4.5 -6 -8.5 -8s-9 -3.66699 -15 -5s-13.333 -2 -22 -2
c-9.33301 0 -17 0.666992 -23 2s-10.833 3 -14.5 5s-6.33398 4.66699 -8.00098 8s-2.5 7 -2.5 11l-23 473c0 4 1.5 7.66699 4.5 11s7.33301 6.16602 13 8.49902s13 4 22 5s19.5 1.5 31.5 1.5c26 0 44.167 -2.16699 54.5 -6.5s15.5 -10.833 15.5 -19.5z" />
    <glyph glyph-name="numbersign" unicode="#" horiz-adv-x="1020" 
d="M979 886c0 -8.66699 -0.832031 -16.167 -2.49902 -22.5s-3.83398 -11.666 -6.50098 -15.999s-6 -7.5 -10 -9.5s-8.33301 -3 -13 -3h-139l-44 -357h126c9.33301 0 16.833 -4.33301 22.5 -13s8.5 -21.667 8.5 -39c0 -8.66699 -0.833008 -16.167 -2.5 -22.5
s-3.83398 -11.666 -6.50098 -15.999s-5.83398 -7.5 -9.50098 -9.5s-7.83398 -3 -12.501 -3h-141l-44 -358c-0.666992 -4 -1.66699 -7.5 -3 -10.5s-4 -5.5 -8 -7.5s-9.66699 -3.33301 -17 -4s-17.333 -1 -30 -1s-23.167 0.333008 -31.5 1s-14.833 2 -19.5 4s-8 4.5 -10 7.5
s-2.66699 6.5 -2 10.5l45 358h-308l-45 -358c-0.666992 -4 -1.66699 -7.5 -3 -10.5s-3.83301 -5.5 -7.5 -7.5s-9.16699 -3.33301 -16.5 -4s-17.333 -1 -30 -1s-23.167 0.333008 -31.5 1s-14.833 2 -19.5 4s-8 4.5 -10 7.5s-2.66699 6.5 -2 10.5l44 358h-128
c-9.33301 0 -16.833 4.16699 -22.5 12.5s-8.5 21.166 -8.5 38.499c0 8.66699 0.833008 16.167 2.5 22.5s3.83398 11.666 6.50098 15.999s5.83398 7.66602 9.50098 9.99902s7.83398 3.5 12.501 3.5h143l45 357h-132c-9.33301 0 -17 4.33301 -23 13s-9 21.334 -9 38.001
c0 17.333 3 30.333 9 39s13.667 13 23 13h145l44 338c0 4 1 7.5 3 10.5s5.33301 5.5 10 7.5s11 3.5 19 4.5s18.333 1.5 31 1.5s22.834 -0.5 30.501 -1.5s13.5 -2.5 17.5 -4.5s6.66699 -4.5 8 -7.5s2 -6.5 2 -10.5l-45 -338h308l42 338c0.666992 4 2 7.5 4 10.5
s5.16699 5.5 9.5 7.5s10.5 3.5 18.5 4.5s18.333 1.5 31 1.5s23 -0.5 31 -1.5s14 -2.5 18 -4.5s6.66699 -4.5 8 -7.5s1.66602 -6.5 0.999023 -10.5l-43 -338h126c9.33301 0 17 -4.33301 23 -13s9 -21.667 9 -39zM380.001 835l-44 -357h307l45 357h-308z" />
    <glyph glyph-name="dollar" unicode="$" horiz-adv-x="1038" 
d="M921 352c0 -51.333 -10.0029 -98.1611 -30.0029 -140.494s-48.667 -78.833 -86 -109.5s-83.333 -54.834 -138 -72.501s-116.334 -27.5 -185.001 -29.5l-22 -219c-0.666992 -4 -1.66699 -7.66699 -3 -11s-3.83301 -6 -7.5 -8s-9 -3.66699 -16 -5s-16.167 -2 -27.5 -2
c-12 0 -21.5 0.666992 -28.5 2s-12.5 3 -16.5 5s-6.66699 4.66699 -8 8s-1.66602 7 -0.999023 11l24 223c-34 4 -65.167 9.16699 -93.5 15.5s-53.333 13.166 -75 20.499s-39.834 14.833 -54.501 22.5s-25.334 14.834 -32.001 21.501s-11.167 14.834 -13.5 24.501
s-3.5 22.167 -3.5 37.5c0 10 0.5 18.5 1.5 25.5s2.83301 13 5.5 18s6 8.66699 10 11s8.66699 3.5 14 3.5c8.66699 0 20.834 -4.83301 36.501 -14.5s36.667 -20.334 63 -32.001s58.833 -22.334 97.5 -32.001s85.334 -14.5 140.001 -14.5
c104.667 0 184.334 20.833 239.001 62.5s82 98.834 82 171.501c0 44 -9.33301 80.667 -28 110s-43.5 54.333 -74.5 75s-66.167 38.167 -105.5 52.5l-120.5 43c-41 14.333 -81 30.166 -120 47.499s-74 39.166 -105 65.499s-55.833 58.666 -74.5 96.999s-28 85.5 -28 141.5
c0 42 7.33301 81.5 22 118.5s37.167 69.667 67.5 98s69 51.333 116 69s102.833 28.167 167.5 31.5l20 202c0.666992 4 1.66699 7.66699 3 11s3.83301 6.16602 7.5 8.49902s8.83398 4 15.501 5s16 1.5 28 1.5c11.333 0 20.666 -0.5 27.999 -1.5s13 -2.66699 17 -5
s6.5 -5.16602 7.5 -8.49902s1.5 -7 1.5 -11l-23 -206c20.667 -2 42 -5.5 64 -10.5s42.833 -10.667 62.5 -17s37.334 -13.5 53.001 -21.5s26.334 -14.667 32.001 -20s9.5 -10 11.5 -14s3.66699 -8.33301 5 -13s2.33301 -10 3 -16s1 -12.333 1 -19
c0 -8.66699 -0.333008 -16.5 -1 -23.5s-2 -12.833 -4 -17.5s-4.5 -8.33398 -7.5 -11.001s-6.83301 -4 -11.5 -4c-6.66699 0 -17.834 4.33301 -33.501 13s-35.667 18 -60 28s-52.666 19.333 -84.999 28s-68.5 13 -108.5 13c-50 0 -92.667 -5 -128 -15s-64 -23.833 -86 -41.5
s-38 -38.834 -48 -63.501s-15 -51.667 -15 -81c0 -44.667 9.5 -81.834 28.5 -111.501s44 -54.667 75 -75s66.333 -37.5 106 -51.5l121.5 -42.5c41.333 -14.333 81.833 -30 121.5 -47s75 -38.667 106 -65s56 -58.666 75 -96.999s28.5 -85.833 28.5 -142.5z" />
    <glyph glyph-name="percent" unicode="%" horiz-adv-x="1448" 
d="M614 973c0 -51.333 -5.66699 -97.833 -17 -139.5s-28.166 -77.167 -50.499 -106.5s-50.5 -52.166 -84.5 -68.499s-73.667 -24.5 -119 -24.5c-44.667 0 -83.5 7.16699 -116.5 21.5s-60.333 35.666 -82 63.999s-37.834 63.5 -48.501 105.5s-16 90.667 -16 146
c0 48 5.33301 92.5 16 133.5s27 76.5 49 106.5s50 53.5 84 70.5s74 25.5 120 25.5c49.333 0 91 -8.83301 125 -26.5s61.333 -41.667 82 -72s35.5 -65.833 44.5 -106.5s13.5 -83.667 13.5 -129zM505 968c0 38.667 -3.00098 73.332 -9.00098 103.999s-15.333 56.5 -28 77.5
s-29.167 37 -49.5 48s-44.833 16.5 -73.5 16.5c-26.667 0 -49.834 -5.16699 -69.501 -15.5s-35.834 -25.666 -48.501 -45.999s-22 -45.166 -28 -74.499s-9 -63 -9 -101c0 -48 3.5 -88.167 10.5 -120.5s17.333 -58 31 -77s30.5 -32.5 50.5 -40.5s43 -12 69 -12
c30.667 0 55.834 5.83301 75.501 17.5s35.334 28.167 47.001 49.5s19.834 46.666 24.501 75.999s7 62 7 98zM1368 325.998c0 -51.333 -5.66699 -97.833 -17 -139.5s-28.166 -77.167 -50.499 -106.5s-50.5 -52.166 -84.5 -68.499s-73.667 -24.5 -119 -24.5
c-44.667 0 -83.5 7.16699 -116.5 21.5s-60.333 35.666 -82 63.999s-37.834 63.5 -48.501 105.5s-16 90.667 -16 146c0 48 5.33301 92.5 16 133.5s27 76.5 49 106.5s50 53.5 84 70.5s74 25.5 120 25.5c49.333 0 91 -8.83301 125 -26.5s61.333 -41.667 82 -72
s35.5 -65.833 44.5 -106.5s13.5 -83.667 13.5 -129zM1259 320.998c0 38.667 -3.00098 73.332 -9.00098 103.999s-15.333 56.5 -28 77.5s-29.167 37 -49.5 48s-44.833 16.5 -73.5 16.5c-26.667 0 -49.834 -5.16699 -69.501 -15.5s-35.834 -25.666 -48.501 -45.999
s-22 -45.166 -28 -74.499s-9 -63 -9 -101c0 -48 3.5 -88.167 10.5 -120.5s17.333 -58 31 -77s30.5 -32.5 50.5 -40.5s43 -12 69 -12c30.667 0 55.834 5.83301 75.501 17.5s35.334 28.167 47.001 49.5s19.834 46.666 24.501 75.999s7 62 7 98zM325.998 -17.0039
c-2.66699 -4 -5.83398 -7.16797 -9.50098 -9.50098s-8.16699 -4.33301 -13.5 -6s-11.5 -2.83398 -18.5 -3.50098s-15.5 -1 -25.5 -1c-10.667 0 -19.334 1.16699 -26.001 3.5s-11.334 5.66602 -14.001 9.99902s-3.66699 9.33301 -3 15s3.33398 12.167 8.00098 19.5l888 1303
c2.66699 4 5.83398 7.33301 9.50098 10s8.16699 4.83398 13.5 6.50098s11.5 2.83398 18.5 3.50098s15.5 1 25.5 1c10.667 0 19.334 -1.16699 26.001 -3.5s11.5 -5.66602 14.5 -9.99902s4 -9.5 3 -15.5s-3.83301 -12.333 -8.5 -19z" />
    </font>
</defs>
</svg>
